Душевна кухня / Soul Kitchen (2009) AVC 2xUkr/Ger

Нові коментарі

Нова тема   Відповісти
Автор Повідомлення
staf777 
Відео Гуртом - підтримка та поширення
Відео Гуртом - підтримка та поширення


З нами з: 16.11.16
Востаннє: 23.01.20
Повідомлень: 3348

2019-01-03 09:04  
Душевна кухня / Soul Kitchen (2009) AVC 2xUkr/Ger

Душевна кухня / Soul Kitchen (2009) AVC 2xUkr/Ger


Жанр: комедія
Країна: Німеччина



Кінокомпанія: Corazón International, Dorje Film, Norddeutscher Rundfunk (NDR)
Режисер: Фатіх Акін
Актори: Адам Боусдукс, Моріц Бляйбтрой, Біроль Унел, Ганна Бедерке, Феліна Рогган, Лукас Грегорович, Доркі Гріллус, Вотан Вільке Мерінг, Демір Гекгель, Моніка Бляйбтрой

Сюжет:
Зінос Казанцакіс (Адам Бусдукос) — власник ресторану під назвою «Душевна кухня», в якому подають виключно просту і невибагливу їжу. Хоча великих грошей він не приносить, Зіносу подобається це місце і його робота. Коли його дівчина Надін (Феліна Рогган) вирішує переїхати в Шанхай, аби продовжити свою кар'єру кореспондента, він не може наважитися все покинути і поїхати разом із нею.
Водночас проблеми починають сипатися одна за одною: пересуваючи посудомийну машину, він ушкоджує міжхребетні диски, не маючи медичної страховки, нічого не може з цим вдіяти. Його брат Іліас, грабіжник, який відбуває останні місяці покарання у в'язниці (Моріц Бляйбтрой), вмовляє Зіноса взяти його на роботу, щоб мати можливість кожен день залишати в'язницю. Надто вишукане куховарство нового кухаря Шейна (Бірол Юнел) розлякує усіх постійних відвідувачів. Гірше за все те, що шкільний знайомий Зіноса Томас Нойманн (Вотан Вілке Мерінг) бажає законним або навіть незаконним шляхом заволодіти землею, на якій розташований ресторан.


Тривалість: 01:39:33
Якість: AVC
Відео:
кодек:
розмір кадру: 1016x548
бітрейт: 1701 кб/с

Аудіо # 1:
мова: українська
переклад: багатоголосий закадровий
кодек: 2.0
бітрейт: 192 кб/с

Аудіо # 2:
мова: українська
переклад: багатоголосий закадровий
кодек: 2.0
бітрейт: 192 кб/с

Аудіо # 3:
мова: німецька
переклад: оригінал
кодек: 5.1
бітрейт: 448 кб/с
MI
General
Unique ID : 65144771118010969557358286718072049523 (0x31026D31D547196D3497694408A0CF73)
Complete name : L:\Фільми AVC\Комедія\Soul Kitchen (2009) AVC [2xUKR][GER][Hurtom].
Format :
Format version : Version 4 / Version 2
File size : 1.76 GiB
Duration : 1 h 39 min
Overall bit rate : 2 534 kb/s
Movie name : Soul Kitchen (2009) AVC [2xUKR][GER][Hurtom]
Encoded date : UTC 2019-01-03 08:00:05
Writing application : v24.0.0 ('Beyond The Pale') 64-bit
Writing library : libebml v1.3.6 + v1.4.9
Cover : Yes
Attachments : cover.png

Video
ID : 1
Format : AVC
Format/Info : Advanced Video Codec
Format profile : [email protected]
Format settings : CABAC / 12 Ref Frames
Format settings, CABAC : Yes
Format settings, ReFrames : 12 frames
Codec ID : V_MPEG4/ISO/AVC
Duration : 1 h 39 min
Bit rate : 1 701 kb/s
Width : 1 016 pixels
Height : 548 pixels
Display aspect ratio : 1.85:1
Frame rate mode : Constant
Frame rate : 24.000 FPS
Color space : YUV
Chroma subsampling : 4:2:0
Bit depth : 8 bits
Scan type : Progressive
Bits/(Pixel*Frame) : 0.127
Stream size : 1.18 GiB (67%)
Title : RIP_BY_-=DoMiNo=-
Writing library : core 155 r2901M 7d0ff22
Encoding settings : cabac=1 / ref=12 / deblock=1:-1:-1 / analyse=0x3:0x133 / me=umh / subme=11 / psy=1 / psy_rd=1.00:0.15 / mixed_ref=1 / me_range=48 / chroma_me=1 / trellis=2 / 8x8dct=1 / cqm=0 / deadzone=21,11 / fast_pskip=0 / chroma_qp_offset=-3 / threads=6 / lookahead_threads=1 / sliced_threads=0 / nr=0 / decimate=1 / interlaced=0 / bluray_compat=0 / constrained_intra=0 / bframes=12 / b_pyramid=2 / b_adapt=2 / b_bias=0 / direct=3 / weightb=1 / open_gop=0 / weightp=2 / keyint=240 / keyint_min=24 / scenecut=40 / intra_refresh=0 / rc_lookahead=80 / rc=2pass / mbtree=0 / bitrate=1701 / ratetol=1.0 / qcomp=0.70 / qpmin=0 / qpmax=69 / qpstep=4 / cplxblur=20.0 / qblur=0.5 / vbv_maxrate=50000 / vbv_bufsize=50000 / nal_hrd=none / filler=0 / ip_ratio=1.40 / pb_ratio=1.30 / aq=1:0.80
Default : Yes
Forced : No
Color range : Limited
Color primaries : BT.709
Transfer characteristics : BT.709
Matrix coefficients : BT.709

Audio #1
ID : 2
Format : AC-3
Format/Info : Audio Coding 3
Codec ID : A_AC3
Duration : 1 h 39 min
Bit rate mode : Constant
Bit rate : 192 kb/s
Channel(s) : 2 channels
Channel positions : Front: L R
Sampling rate : 48.0 kHz
Frame rate : 31.250 FPS (1536 SPF)
Bit depth : 16 bits
Compression mode : Lossy
Stream size : 137 MiB (8%)
Title : [UKR-MVO-CINE+]
Language : Ukrainian
Service kind : Complete Main
Default : Yes
Forced : Yes

Audio #2
ID : 3
Format : AC-3
Format/Info : Audio Coding 3
Codec ID : A_AC3
Duration : 1 h 39 min
Bit rate mode : Constant
Bit rate : 192 kb/s
Channel(s) : 2 channels
Channel positions : Front: L R
Sampling rate : 48.0 kHz
Frame rate : 31.250 FPS (1536 SPF)
Bit depth : 16 bits
Compression mode : Lossy
Stream size : 137 MiB (8%)
Title : [UKR-MVO-TET]
Language : Ukrainian
Service kind : Complete Main
Default : No
Forced : No

Audio #3
ID : 4
Format : AC-3
Format/Info : Audio Coding 3
Codec ID : A_AC3
Duration : 1 h 39 min
Bit rate mode : Constant
Bit rate : 448 kb/s
Channel(s) : 6 channels
Channel positions : Front: L C R, Side: L R, LFE
Sampling rate : 48.0 kHz
Frame rate : 31.250 FPS (1536 SPF)
Bit depth : 16 bits
Compression mode : Lossy
Stream size : 319 MiB (18%)
Language : German
Service kind : Complete Main
Default : No
Forced : No




За українську доріжку від ТЕТ подяка п.: ratbol, AngryBirdsUA
За українську доріжку від Cine+ дякуємо пану Sando7 та drop_plz
Джерело: &
Особиста оцінка: 8 - мені сподобалося


 Трекер:    Зареєстрований   

Завантажити / скачати фільм українською



відео для новачків



 Зареєстрований:   2019-01-03 10:35
 Розмір:   1.76 GB 
 Оцінка фільму:   8.9/10 (Голосів: 8)
   
Інші релізи
   Душевна кухня / Soul Kitchen (2009) 2xUkr/Ger drop_plz  3 / 0   1.9 GB   2019-01-01 13:18 
   Душевна кухня / Soul Kitchen (2009) AngryBirdsUA  3 / 0   1.45 GB   2013-10-02 20:51 
   Соул Кухня / Soul Kitchen (2009) Ger | Sub Ukr/Eng tarasmc  1 / 0   1.44 GB   2013-08-08 23:34 
Ваш часовий пояс: GMT + 2 Години

Нова тема   Відповісти