Погані часи у «Ель Роялі» / Bad Times at the El Royale (2018) Remux 1080p Ukr/Eng | Sub Ukr/Eng

Нові коментарі

Нова тема   Відповісти
Автор Повідомлення
staf777 
Відео Гуртом - підтримка та поширення
Відео Гуртом - підтримка та поширення


З нами з: 16.11.16
Востаннє: 16.10.19
Повідомлень: 2983

2019-01-02 20:28  
Погані часи у «Ель Роялі» / Bad Times at the El Royale (2018) Remux 1080p Ukr/Eng | Sub Ukr/Eng


Альтернативний постер

«Усі дороги ведуть сюди»



Жанр: детектив, драма, кримінальний, трилер
Країна: США



Кінокомпанія: Goddard Textiles, TSG Entertainment, Twentieth Century Fox
Режисер: Дрю Годдард
Актори: Джефф Бріджес, Синтія Еріво, Дакота Джонсон, Джон Хемм, Кріс Гемсворт, Кайлі Спейні, Льюїс Пуллман, Нік Офферман, Ксав'є Долан, Ши Вігхем

Сюжет:
У «Ель-Роялі», занедбаному готелі з темним минулим на березі озера Тахо, зустрічаються семеро незнайомців, кожному з яких є що приховувати. Протягом однієї рокової ночі кожен матиме останній шанс на спокуту... до того, як усе піде прахом.


Тривалість: 02:21:37
Якість: Remux 1080p

Відео:
кодек:
розмір кадру: 1920x1080
бітрейт: 26,2 Mб/с

Аудіо # 1:
мова: українська
переклад: професійний дубльований
кодек: 5.1
бітрейт: 448 кб/с

Аудіо # 2:
мова: англійська
переклад: оригінал
кодек: -HD MA 7.1
бітрейт: 4778 кб/с

Субтитри # 1-2: (Forced+Full)
мова: українська
тип: програмні (м'які)
формат: *.srt

Субтитри # 3-4: (Full+SDH)
мова: англійська
тип: програмні (м'які)
формат: *.srt
Info
Код:
General
Unique ID                   : 180325356310631070444960655311166619497 (0x87A9667D041EC891FEACFEC765DDBF69)
Complete name               : S:\» HD українською » Фільми в HD\Трилер\Bad Times at the El Royale (2018) Remux 1080p [UKR][ENG][Hurtom].
Format                      :
Format version              : Version 4
File size                   : 31.1 GiB
Duration                    : 2 h 21 min
Overall bit rate mode       : Variable
Overall bit rate            : 31.4 Mb/s
Movie name                  : Bad Times at the El Royale (2018) Remux 1080p [UKR][ENG][Hurtom]
Encoded date                : UTC 2019-02-07 18:52:08
Writing application         : v30.1.0 ('Forever And More') 64-bit
Writing library             : libebml v1.3.6 + v1.4.9
Cover                       : Yes
Attachments                 : cover

Video
ID                          : 1
Format                      : AVC
Format/Info                 : Advanced Video Codec
Format profile              : [email protected]
Format settings             : CABAC / 4 Ref Frames
Format settings, CABAC      : Yes
Format settings, ReFrames   : 4 frames
Codec ID                    : V_MPEG4/ISO/AVC
Duration                    : 2 h 21 min
Bit rate mode               : Variable
Bit rate                    : 26.2 Mb/s
Maximum bit rate            : 32.5 Mb/s
Width                       : 1 920 pixels
Height                      : 1 080 pixels
Display aspect ratio        : 16:9
Frame rate mode             : Constant
Frame rate                  : 23.976 (24000/1001) FPS
Color space                 : YUV
Chroma subsampling          : 4:2:0
Bit depth                   : 8 bits
Scan type                   : Progressive
Bits/(Pixel*Frame)          : 0.527
Stream size                 : 25.9 GiB (83%)
Language                    : English
Default                     : Yes
Forced                      : No

Audio #1
ID                          : 2
Format                      : AC-3
Format/Info                 : Audio Coding 3
Commercial name             : Dolby Digital
Codec ID                    : A_AC3
Duration                    : 2 h 21 min
Bit rate mode               : Constant
Bit rate                    : 448 kb/s
Channel(s)                  : 6 channels
Channel layout              : L R C LFE Ls Rs
Sampling rate               : 48.0 kHz
Frame rate                  : 31.250 FPS (1536 SPF)
Bit depth                   : 16 bits
Compression mode            : Lossy
Stream size                 : 454 MiB (1%)
Title                       : Dub [License]
Language                    : Ukrainian
Service kind                : Complete Main
Default                     : Yes
Forced                      : Yes

Audio #2
ID                          : 3
Format                      : ES XLL
Format/Info                 : Digital Theater Systems
Commercial name             : -HD Master Audio
Codec ID                    : A_DTS
Duration                    : 2 h 21 min
Bit rate mode               : Variable
Bit rate                    : 4 778 kb/s
Channel(s)                  : 8 channels
Channel layout              : C L R Ls Rs LFE Lb Rb
Sampling rate               : 48.0 kHz
Frame rate                  : 93.750 FPS (512 SPF)
Bit depth                   : 24 bits
Compression mode            : Lossless
Stream size                 : 4.73 GiB (15%)
Title                       : Original
Language                    : English
Default                     : No
Forced                      : No

Text #1
ID                          : 4
Format                      : UTF-8
Codec ID                    : S_TEXT/UTF8
Codec ID/Info               : UTF-8 Plain Text
Duration                    : 2 h 11 min
Bit rate                    : 0 b/s
Count of elements           : 14
Stream size                 : 525 Bytes (0%)
Title                       : Forced
Language                    : Ukrainian
Default                     : Yes
Forced                      : Yes

Text #2
ID                          : 5
Format                      : UTF-8
Codec ID                    : S_TEXT/UTF8
Codec ID/Info               : UTF-8 Plain Text
Duration                    : 2 h 17 min
Bit rate                    : 51 b/s
Count of elements           : 1323
Stream size                 : 51.7 KiB (0%)
Title                       : Full
Language                    : Ukrainian
Default                     : No
Forced                      : No

Text #3
ID                          : 6
Format                      : UTF-8
Codec ID                    : S_TEXT/UTF8
Codec ID/Info               : UTF-8 Plain Text
Duration                    : 2 h 13 min
Bit rate                    : 41 b/s
Count of elements           : 1467
Stream size                 : 40.5 KiB (0%)
Title                       : Full
Language                    : English
Default                     : No
Forced                      : No

Text #4
ID                          : 7
Format                      : UTF-8
Codec ID                    : S_TEXT/UTF8
Codec ID/Info               : UTF-8 Plain Text
Duration                    : 2 h 18 min
Bit rate                    : 45 b/s
Count of elements           : 1711
Stream size                 : 46.2 KiB (0%)
Title                       : SDH
Language                    : English
Default                     : No
Forced                      : No

Menu
00:00:00.000                : en:Chapter 1
00:04:19.592                : en:Chapter 2
00:19:21.994                : en:Chapter 3
00:34:32.779                : en:Chapter 4
00:49:24.711                : en:Chapter 5
00:51:19.868                : en:Chapter 6
01:16:01.473                : en:Chapter 7
01:37:13.369                : en:Chapter 8
02:03:56.720                : en:Chapter 9
02:14:09.041                : en:Chapter 10
02:15:45.428                : en:Chapter 11
Скріншоти:



Джерело: &
Особиста оцінка: 0 - не дивився


Золотий реліз (завантажене не впливає на рейтинг)
 Трекер:    Зареєстрований   

Завантажити / скачати фільм українською



відео для новачків



 Зареєстрований:   2019-02-07 22:23
 Розмір:   31.07 GB 
 Оцінка фільму:   8.7/10 (Голосів: 46)
   
vitandre 
Новенький


З нами з: 02.09.11
Востаннє: 13.10.19
Повідомлень: 21

2019-01-05 20:19  
Це типу "Готель Артеміда"?
ВАВУНЯ 
VIP


З нами з: 30.06.15
Востаннє: 14.10.19
Повідомлень: 265

2019-01-06 16:15  
5.1 буде?
дякую.

fatum69 
Частий відвідувач


З нами з: 10.12.16
Востаннє: 16.10.19
Повідомлень: 36

2019-01-08 02:42  
від початку і до кінця було цікаво!
MakRA 
VIP


З нами з: 11.11.18
Востаннє: 17.10.19
Повідомлень: 434

2019-01-09 02:27  
Нарешті добрався до фільму) Сподобався! Дійсно, є багато від Тарантіно, сюжет норм. Через деякий час, можливо, передивлюся ще раз.
Kamper 
Свій


З нами з: 21.01.13
Востаннє: 12.10.19
Повідомлень: 70

2019-01-09 23:07  
Приємне кіно, просто і досить атмосферно.
sandman 
VIP


З нами з: 12.08.12
Востаннє: 16.10.19
Повідомлень: 283

2019-01-12 17:27  
на диво, дуже достойний фільм, дякую за реліз
alesandroua 
Свій


З нами з: 09.10.16
Востаннє: 02.10.19
Повідомлень: 62

2019-01-17 14:56  
А я от дуже розчарований, чекав значно більшого. Крім інтригуючого початку, нічого в цьому фільмі для себе не знайшов. А герой Кріса Гемсворта взагалі для мене як "не приший нога". Сценаристам - суцільний мінус, питання є, а от відповідей - нема, гра акторів на рівні, особливо, звичайно, Джефф Бріджес.
O_omarella! 
Свій


З нами з: 14.06.13
Востаннє: 15.10.19
Повідомлень: 133

2019-01-20 10:07  
Неоднозначний фільм але мені сподобався.
staf777 
Відео Гуртом - підтримка та поширення
Відео Гуртом - підтримка та поширення


З нами з: 16.11.16
Востаннє: 16.10.19
Повідомлень: 2983

2019-02-07 11:05  
Замінив доріжку на 
igor911 
Модератор відео


З нами з: 18.01.08
Востаннє: 17.10.19
Повідомлень: 13522

2019-02-07 11:06  
staf777 написано:
Зареєстрований:   2019-02-07 10:03

тут і в ріпі 1080 пропустив українські повні субтитри з блурея. Перероби, будь ласка.

staf777 
Відео Гуртом - підтримка та поширення
Відео Гуртом - підтримка та поширення


З нами з: 16.11.16
Востаннє: 16.10.19
Повідомлень: 2983

2019-02-07 11:38  
igor911
брав тут
видалено, п.2.10
там нема укр сабів як і не бачу сабів в інших релізах що на Гуртом

igor911 
Модератор відео


З нами з: 18.01.08
Востаннє: 17.10.19
Повідомлень: 13522

2019-02-07 11:46  
staf777, повні укр. саби є в оригінальному блуреї з блубірда (Blu-ray Disc [EUR] -JATO)
SUBTITLES:
Codec Language Bitrate Description
----- -------- ------- -----------
Presentation Graphics English 30.319 kbps
Presentation Graphics French 21.265 kbps
Presentation Graphics Spanish 21.955 kbps
Presentation Graphics Danish 21.502 kbps
Presentation Graphics Dutch 20.978 kbps
Presentation Graphics Finnish 21.760 kbps
Presentation Graphics German 25.218 kbps
Presentation Graphics Italian 21.742 kbps
Presentation Graphics Norwegian 22.141 kbps
Presentation Graphics Russian 21.069 kbps
Presentation Graphics Swedish 21.435 kbps
Presentation Graphics Estonian 22.771 kbps
Presentation Graphics Latvian 22.193 kbps
Presentation Graphics Lithuanian 22.175 kbps
Presentation Graphics Ukrainian 22.501 kbps
Presentation Graphics Vietnamese 22.775 kbps
Presentation Graphics French 0.484 kbps
Presentation Graphics Japanese 14.295 kbps
Presentation Graphics Japanese 0.129 kbps
Додано через 2 хвилини 26 секунд:

+ також є в булуреї на руторі (Blu-Ray EUR 1080p), будь уважніше.

staf777 
Відео Гуртом - підтримка та поширення
Відео Гуртом - підтримка та поширення


З нами з: 16.11.16
Востаннє: 16.10.19
Повідомлень: 2983

2019-02-07 22:25  
Додав повні українські саби 
[email protected] 
VIP


З нами з: 25.03.17
Востаннє: 16.10.19
Повідомлень: 365

2019-02-14 01:24  
В стилі Тарантіно, цікавий сюжет, мені сподобався
drabaty 
Новенький


З нами з: 02.10.13
Востаннє: 16.10.19
Повідомлень: 6

2019-02-18 22:26  
Дякую за фільм! Сам, на жаль, завантажив та проглянув ще зі стерео і без повних сабів.
Ваш часовий пояс: GMT + 2 Години

Нова тема   Відповісти