Ліно / Lino: Uma Aventura de Sete Vidas (2017) 720p Ukr/Por

Нові коментарі

Нова тема   Відповісти
Останній раз роздавалося vatvolia (2021-02-23)
Автор Повідомлення
sergiyko.5 
Забанено
Забанено


З нами з: 25.02.16
Востаннє: 29.10.20
Повідомлень: 3648

2019-01-02 18:43  
Ліно / Lino: Uma Aventura de Sete Vidas (2017) 720p Ukr/Por

Ліно / Lino: Uma Aventura de Sete Vidas (2017) 720p Ukr/Por

Жанр: пригоди, комедія
Країна: Бразилія
Режисер: Рафаель Рібас

Сюжет:
Як же хочеться вірити в те, що ти живеш добре. Молодий хлопець Ліно всім розповідає про вдалу долю. Гарна квартира з вінтажною ванною стилю епохи відродження, пристойна робота, пов'язана з вихованням підростаючого покоління, увага дівчат, яку він відкидає, тому що чекає справжнє кохання. Саме так виглядала життя в фантазіях цього персонажа. Насправді ж квартира була просто стара, все валилося, меблі і правда належали часів минулих епох.




Тривалість: 01:32:25
Якість:

Відео: кодек: h264 розмір кадру: 1280 х 720 бітрейт: 4000 кб/с
Аудіо #1: мова: українська переклад: професійний дубльований кодек: 2ch бітрейт: 192 кб/с
Озвучення:
Аудіо #2: мова: португальська переклад: оригінал кодек: MP3 2ch бітрейт: 128 кб/с

Примітка: ріп має три написи російською.
Про файл:
General
Unique ID : 307065329856123020723863576637656975619 (0xE702A1A12819566F27F87CD1E2CAC903)
Complete name : G:\Torrents2\MULT\Lino.Uma Aventura de Sete Vidas.2017.720p..
Format :
Format version : Version 4
File size : 2.80 GiB
Duration : 1 h 32 min
Overall bit rate : 4 344 kb/s
Movie name : Lino: Uma Aventura de Sete Vidas 2017 720p by sergiyko
Encoded date : UTC 2019-01-03 14:46:59
Writing application : v29.0.0 ('Like It Or Not') 64-bit
Writing library : libebml v1.3.6 + v1.4.9
Cover : Yes
Attachments : cover.jpg

Video
ID : 1
Format : AVC
Format/Info : Advanced Video Codec
Format profile : [email protected]
Format settings : 2 Ref Frames
Format settings, CABAC : No
Format settings, ReFrames : 2 frames
Codec ID : V_MPEG4/ISO/AVC
Duration : 1 h 32 min
Bit rate : 4 021 kb/s
Width : 1 280 pixels
Height : 720 pixels
Display aspect ratio : 16:9
Frame rate mode : Constant
Frame rate : 24.000 FPS
Color space : YUV
Chroma subsampling : 4:2:0
Bit depth : 8 bits
Scan type : Progressive
Bits/(Pixel*Frame) : 0.182
Stream size : 2.60 GiB (93%)
Title : Lino: Uma Aventura de Sete Vidas 2017
Language : English
Default : Yes
Forced : No
Color range : Limited
Color primaries : BT.709
Transfer characteristics : BT.709
Matrix coefficients : BT.709

Audio #1
ID : 2
Format : AC-3
Format/Info : Audio Coding 3
Commercial name : Dolby Digital
Codec ID : A_AC3
Duration : 1 h 32 min
Bit rate mode : Constant
Bit rate : 192 kb/s
Channel(s) : 2 channels
Channel layout : L R
Sampling rate : 48.0 kHz
Frame rate : 31.250 FPS (1536 SPF)
Bit depth : 16 bits
Compression mode : Lossy
Delay relative to video : -42 ms
Stream size : 127 MiB (4%)
Title : DUB 2ch | ТЕТ
Language : Ukrainian
Service kind : Complete Main
Default : Yes
Forced : Yes

Audio #2
ID : 3
Format : MPEG Audio
Format version : Version 1
Format profile : Layer 3
Format settings : Joint stereo / MS Stereo
Codec ID : A_MPEG/L3
Codec ID/Hint : MP3
Duration : 1 h 32 min
Bit rate mode : Constant
Bit rate : 128 kb/s
Channel(s) : 2 channels
Sampling rate : 44.1 kHz
Frame rate : 38.281 FPS (1152 SPF)
Compression mode : Lossy
Delay relative to video : -42 ms
Stream size : 84.6 MiB (3%)
Title : Original
Writing library : LAME3.99r
Encoding settings : -m j -V 4 -q 3 -lowpass 17 -b 128
Language : Portuguese
Default : No
Forced : No

Menu
00:00:00.000 : en:_01
00:06:52.583 : en:_02
00:13:23.291 : en:_03
00:21:18.999 : en:_04
00:27:58.624 : en:_05
00:32:29.124 : en:_06
00:37:39.540 : en:_07
00:42:07.915 : en:_08
00:48:17.748 : en:_09
00:53:18.206 : en:_10
00:58:31.497 : en:_11
01:03:52.538 : en:_12
01:10:49.413 : en:_13
01:17:48.913 : en:_14
01:22:02.871 : en:_15
Скріншоти:



Запис/зведення: sergiyko


 Трекер:    Зареєстрований   

Завантажити / скачати мультфільм українською



відео для новачків



 Зареєстрований:   2019-01-03 17:17
 Розмір:   2.8 GB 
 Оцінка мультфільму:   10/10 (Голосів: 2)
   
Інші релізи
   Ліно / Lino: Uma Aventura de Sete Vidas (2017) 1080p Ukr/Por sergiyko.5  3 / 0   3.52 GB   2019-01-03 17:18 
   Ліно / Lino: Uma Aventura de Sete Vidas (2017) sergiyko.5  5 / 0   1.33 GB   2019-01-03 16:45 
bot 
робот


З нами з: 30.09.07
Востаннє: 26.05.05
Повідомлень: 27257

2019-01-03 17:17  
Тему перенесено з Анонси релізів до форуму Мультфільми в HD


sergiyko.5

Ваш часовий пояс: GMT + 2 Години

Нова тема   Відповісти