Ліно / Lino: Uma Aventura de Sete Vidas (2017) 1080p Ukr/Por

Нові коментарі

Нова тема   Відповісти
Автор Повідомлення
sergiyko.5 
VIP


З нами з: 25.02.16
Востаннє: 28.02.20
Повідомлень: 2957

2019-01-02 18:41  
Ліно / Lino: Uma Aventura de Sete Vidas (2017) 1080p Ukr/Por

Ліно / Lino: Uma Aventura de Sete Vidas (2017) 1080p Ukr/Por

Жанр: пригоди, комедія
Країна: Бразилія
Режисер: Рафаель Рібас

Сюжет:
Як же хочеться вірити в те, що ти живеш добре. Молодий хлопець Ліно всім розповідає про вдалу долю. Гарна квартира з вінтажною ванною стилю епохи відродження, пристойна робота, пов'язана з вихованням підростаючого покоління, увага дівчат, яку він відкидає, тому що чекає справжнє кохання. Саме так виглядала життя в фантазіях цього персонажа. Насправді ж квартира була просто стара, все валилося, меблі і правда належали часів минулих епох.




Тривалість: 01:32:25
Якість:

Відео: кодек: h264 розмір кадру: 1920 х 1080 бітрейт: 5100 кб/с
Аудіо #1: мова: українська переклад: професійний дубльований кодек: 2ch бітрейт: 192 кб/с
Озвучення:
Аудіо #2: мова: португальська переклад: оригінал кодек: MP3 2ch бітрейт: 128 кб/с

Примітка: ріп має три написи російською.
Про файл:
General
Unique ID : 178199817235413528940142099081936526838 (0x86100952271AF1081C2213E477EC5DF6)
Complete name : G:\Torrents2\MULT\Lino.Uma Aventura de Sete Vidas.2017.1080p..
Format :
Format version : Version 4
File size : 3.52 GiB
Duration : 1 h 32 min
Overall bit rate : 5 444 kb/s
Movie name : Lino: Uma Aventura de Sete Vidas 2017 1080p by sergiyko
Encoded date : UTC 2019-01-03 14:49:27
Writing application : v29.0.0 ('Like It Or Not') 64-bit
Writing library : libebml v1.3.6 + v1.4.9
Cover : Yes
Attachments : cover.jpg

Video
ID : 1
Format : AVC
Format/Info : Advanced Video Codec
Format profile : [email protected]
Format settings : CABAC / 4 Ref Frames
Format settings, CABAC : Yes
Format settings, ReFrames : 4 frames
Format settings, GOP : N=1
Codec ID : V_MPEG4/ISO/AVC
Duration : 1 h 32 min
Bit rate : 5 122 kb/s
Width : 1 920 pixels
Height : 1 080 pixels
Display aspect ratio : 16:9
Frame rate mode : Constant
Frame rate : 24.000 FPS
Color space : YUV
Chroma subsampling : 4:2:0
Bit depth : 8 bits
Scan type : Progressive
Bits/(Pixel*Frame) : 0.103
Stream size : 3.31 GiB (94%)
Title : Lino: Uma Aventura de Sete Vidas 2017
Language : English
Default : Yes
Forced : No
Color range : Limited
Color primaries : BT.709
Transfer characteristics : BT.709
Matrix coefficients : BT.709

Audio #1
ID : 2
Format : AC-3
Format/Info : Audio Coding 3
Commercial name : Dolby Digital
Codec ID : A_AC3
Duration : 1 h 32 min
Bit rate mode : Constant
Bit rate : 192 kb/s
Channel(s) : 2 channels
Channel layout : L R
Sampling rate : 48.0 kHz
Frame rate : 31.250 FPS (1536 SPF)
Bit depth : 16 bits
Compression mode : Lossy
Delay relative to video : -42 ms
Stream size : 127 MiB (4%)
Title : DUB 2ch | ТЕТ
Language : Ukrainian
Service kind : Complete Main
Default : Yes
Forced : Yes

Audio #2
ID : 3
Format : MPEG Audio
Format version : Version 1
Format profile : Layer 3
Format settings : Joint stereo / MS Stereo
Codec ID : A_MPEG/L3
Codec ID/Hint : MP3
Duration : 1 h 32 min
Bit rate mode : Constant
Bit rate : 128 kb/s
Channel(s) : 2 channels
Sampling rate : 44.1 kHz
Frame rate : 38.281 FPS (1152 SPF)
Compression mode : Lossy
Delay relative to video : -42 ms
Stream size : 84.6 MiB (2%)
Title : Original
Writing library : LAME3.99r
Encoding settings : -m j -V 4 -q 3 -lowpass 17 -b 128
Language : Portuguese
Default : No
Forced : No

Menu
00:00:00.000 : en:-01
00:06:52.583 : en:-02
00:13:23.291 : en:-03
00:21:18.999 : en:-04
00:27:58.624 : en:-05
00:32:29.124 : en:-06
00:37:39.540 : en:-07
00:42:07.915 : en:-08
00:48:17.748 : en:-09
00:53:18.206 : en:_10
00:58:31.497 : en:_11
01:03:52.538 : en:_12
01:10:49.413 : en:_13
01:17:48.913 : en:_14
01:22:02.871 : en:_15
Скріншоти:



Запис/зведення: sergiyko


 Трекер:    Зареєстрований   

Завантажити / скачати мультфільм українською



відео для новачків



 Зареєстрований:   2019-01-03 17:18
 Розмір:   3.52 GB 
 Оцінка мультфільму:   8.5/10 (Голосів: 6)
   
Інші релізи
   Ліно / Lino: Uma Aventura de Sete Vidas (2017) 720p Ukr/Por sergiyko.5  1 / 0   2.8 GB   2019-01-03 17:17 
   Ліно / Lino: Uma Aventura de Sete Vidas (2017) sergiyko.5  7 / 0   1.33 GB   2019-01-03 16:45 
bot 
робот


З нами з: 30.09.07
Востаннє: 26.05.05
Повідомлень: 23395

2019-01-03 17:18  
Тему перенесено з Анонси релізів до форуму Мультфільми в HD


sergiyko.5

Ваш часовий пояс: GMT + 2 Години

Нова тема   Відповісти