Ґолдберги (Сезон 4) / The Goldbergs (Season 4) (2016-2017) 1080p Ukr/Eng | Sub Eng

Нові коментарі

Нова тема   Відповісти
Автор Повідомлення
Anonymous 







2019-01-02 16:40  
Ґолдберги (Сезон 4) / The Goldbergs (Season 4) (2016-2017) 1080p Ukr/Eng | Sub Eng

Ґолдберги (Сезон 4) / The Goldbergs (Season 4) (2016-2017) 1080p Ukr/Eng | Sub Eng


Жанр: ситком, комедія
Країна: США



Кінокомпанія: Adam F. Goldberg Productions, Happy Madison Productions, Sony Pictures Television
Режисер: Адам Ф. Ґолдберг / Adam F. Goldberg
Актори: Венді Маклендон-Кові / Wendi McLendon-Covey, Сіан Ґамброн / Sean Giambrone, Трой Джентіле / Troy Gentile, Гейлі Орранція / Hayley Orrantia, Джордж Сігал / George Segal, Джефф Гарлін / Jeff Garlin та інші.

Сюжет:
Ааерика вісімдесятих років минулого століття... Єврейську родину Ґолдбергів знає вся околиця. Батько сімейства Мюррей - деспот, який вважає що він завжди має рацію. Всі суперечки чоловік вирішує криками і образами, а свою дружину привчив до того ж. Старші діти вдалися в батьків, їхню поведінку важко назвати зразковою. Найнормальніший член родини - одинадцятирічний Адам, який мріє стати режисером і знімає на камеру все, що відбувається в галасливому будинку.


Тривалість: 1 серія: 1 серія: 21:00 (цілком серій: 24)
Перелік серій
1 Sep 21, 2016 Breakfast Club
2 Sep 28, 2016 I Heart Video Dating
3 Oct 05, 2016 George! George Glass!
4 Oct 12, 2016 Crazy Calls
5 Oct 26, 2016 Stefan King
6 Nov 09, 2016 Recipe for Death II: Kiss the Cook
7 Nov 16, 2016 Ho-ly K.i.t.t.
8 Nov 30, 2016 The Greatest Musical Ever Written
9 Dec 07, 2016 Globetrotters
10 Dec 14, 2016 Han Ukkah Solo
11 Jan 04, 2017 O Captain! My Captain!
12 Jan 11, 2017 Snow Day
13 Feb 08, 2017 Agassi
14 Feb 15, 2017 The Spencer's Gift
15 Feb 22, 2017 So Swayze It's Crazy
16 Mar 01, 2017 The Kara-te Kid
17 Mar 08, 2017 Deadheads
18 Mar 15, 2017 Baré (FKA Doggie Howser)
19 Mar 29, 2017 A Night To Remember
20 Apr 05, 2017 The Dynamic Duo
21 Apr 26, 2017 Fonzie Scheme
22 May 03, 2017 The Day After the Day After
23 May 10, 2017 Jedi Master Adam Skywalker
24 May 17, 2017 Graduation Day
Якість:
Відео:
кодек:
розмір кадру: 1920 х 1080
бітрейт: 7134 кб/с

Аудіо # 1:
мова: українська
переклад: багатоголосий закадровий
кодек: 2.0
бітрейт: 192 кб/с

Джерело озвучення:


Аудіо # 2:
мова: англійська
переклад: оригінал
кодек: E- 5.1
бітрейт: 640 кб/с

Субтитри:
мова: англійська
тип: програмні (м'які)
формат: *.srt
Info
omplete name : F:\The Goldbergs - Season 4 (2016-2017) [Ukr.Eng] 1080p [Hurtom]\The Goldbergs S04E01 - Breakfast Club [Ukr.Eng] 1080p [Hurtom].
Format :
Format version : Version 4
File size : 1.20 GiB
Duration : 21 min 38 s
Overall bit rate : 7 971 kb/s
Encoded date : UTC 2019-01-01 21:33:24
Writing application : v27.0.0 ('Metropolis') 64-bit
Writing library : libebml v1.3.6 + v1.4.9
Cover : Yes
Attachments : cover.jpg

Video
ID : 1
Format : AVC
Format/Info : Advanced Video Codec
Format profile : [email protected]
Format settings : CABAC / 4 Ref Frames
Format settings, CABAC : Yes
Format settings, ReFrames : 4 frames
Codec ID : V_MPEG4/ISO/AVC
Duration : 21 min 38 s
Bit rate : 7 134 kb/s
Width : 1 920 pixels
Height : 1 080 pixels
Display aspect ratio : 16:9
Frame rate mode : Constant
Frame rate : 23.976 (24000/1001) FPS
Color space : YUV
Chroma subsampling : 4:2:0
Bit depth : 8 bits
Scan type : Progressive
Bits/(Pixel*Frame) : 0.143
Stream size : 1.08 GiB (89%)
Writing library : core 148 r2638 7599210
Encoding settings : cabac=1 / ref=4 / deblock=1:-1:-3 / analyse=0x3:0x133 / me=umh / subme=10 / psy=1 / psy_rd=1.00:0.00 / mixed_ref=1 / me_range=48 / chroma_me=1 / trellis=2 / 8x8dct=1 / cqm=0 / deadzone=21,11 / fast_pskip=1 / chroma_qp_offset=-2 / threads=12 / lookahead_threads=2 / sliced_threads=0 / nr=0 / decimate=0 / interlaced=0 / bluray_compat=0 / constrained_intra=0 / bframes=8 / b_pyramid=2 / b_adapt=2 / b_bias=0 / direct=3 / weightb=1 / open_gop=0 / weightp=2 / keyint=240 / keyint_min=23 / scenecut=40 / intra_refresh=0 / rc=crf / mbtree=0 / crf=17.0 / qcomp=0.60 / qpmin=0 / qpmax=69 / qpstep=4 / ip_ratio=1.30 / pb_ratio=1.20 / aq=1:0.90
Language : English
Default : Yes
Forced : No

Audio #1
ID : 2
Format : AC-3
Format/Info : Audio Coding 3
Commercial name : Dolby Digital
Codec ID : A_AC3
Duration : 21 min 37 s
Bit rate mode : Constant
Bit rate : 192 kb/s
Channel(s) : 2 channels
Channel layout : L R
Sampling rate : 48.0 kHz
Frame rate : 31.250 FPS (1536 SPF)
Bit depth : 16 bits
Compression mode : Lossy
Stream size : 29.7 MiB (2%)
Language : Ukrainian
Service kind : Complete Main
Default : Yes
Forced : No

Audio #2
ID : 3
Format : E-AC-3
Format/Info : Enhanced AC-3
Commercial name : Dolby Digital Plus
Codec ID : A_EAC3
Duration : 21 min 38 s
Bit rate mode : Constant
Bit rate : 640 kb/s
Channel(s) : 6 channels
Channel layout : L R C LFE Ls Rs
Sampling rate : 48.0 kHz
Frame rate : 31.250 FPS (1536 SPF)
Compression mode : Lossy
Stream size : 99.1 MiB (8%)
Language : English
Service kind : Complete Main
Default : No
Forced : No

Text
ID : 4
Format : UTF-8
Codec ID : S_TEXT/UTF8
Codec ID/Info : UTF-8 Plain Text
Duration : 21 min 28 s
Bit rate : 134 b/s
Count of elements : 613
Stream size : 21.1 KiB (0%)
Language : English
Default : Yes
Forced : No
Скріншоти






Робота над релізом:
Anonymous

Джерело:
Особиста оцінка: 10 - без зайвих вагань рекомендую всім!


Бронзовий реліз (на рейтинг впливає 75% завантаженого)
 Трекер:    Зареєстрований   

Завантажити / скачати серіал українською



відео для новачків



 Зареєстрований:   2019-01-02 16:40
 Розмір:   29.1 GB 
 Оцінка серіалу:   10/10 (Голосів: 3)
   
Anоnymous 
VIP


З нами з: 25.08.18
Востаннє: 04.06.19
Повідомлень: 808

2019-01-02 19:56  
Anonymous написано:
Робота над релізом:*******"

Анонімний анонімус я Happy

Anonymous 







2019-01-02 20:21  
Anоnymous написано:
Анонімний анонімус я

Замінив

Ваш часовий пояс: GMT + 2 Години

Нова тема   Відповісти