Я боязкий, але я лікуюся / Je suis timide... mais je me soigne (1978) -AVC Ukr/Fra

Нові коментарі

Нова тема   Відповісти
Автор Повідомлення
Anonymous 







2019-01-02 13:52  
Я боязкий, але я лікуюся / Je suis timide... mais je me soigne (1978) -AVC Ukr/Fra



Жанр: комедія
Країна: Франція



Кінокомпанія: Albina Productions S.a.r.l., Fideline Films
Режисер: П'єр Рішар
Актори: П'єр Рішар, Жак Франсуа, Альдо Маччоне, Катрін Лашанс, Робер Дальбан, Жак Фаббрі, Робер Кастель, Рауль Дельфосс

Сюжет:
Касир П'єр Рено - добра людина. Але він занадто сором'язливий. Ось, наприклад: П'єр закохався. Але він не може відкритися своїй обраниці. І тому страждає, ходить навкруги, червоніє, блідне. Загалом, П'єр приймає рішення лікуватися від своєї сором'язливості. А добрим доктором стає італієць-авантюрист Альдо. Разом вони відправляються на Лазурний берег назустріч мрії.


Тривалість: 01:27:02
Відео:
кодек:
розмір кадру: [email protected]
бітрейт: 3000 кб/с

Аудіо # 1:
мова: українська
переклад: багатоголосий закадровий

кодек: 2.0
бітрейт: 192 кб/с

Аудіо # 2:
мова: французька
переклад: оригінал
кодек: 2.0
бітрейт: 224 кб/с
Info
Video
ID : 1
Format : AVC
Format/Info : Advanced Video Codec
Format profile : [email protected]
Format settings : CABAC / 14 Ref Frames
Format settings, CABAC : Yes
Format settings, ReFrames : 14 frames
Codec ID : V_MPEG4/ISO/AVC
Duration : 1 h 27 min
Bit rate : 3 000 kb/s
Width : 656 pixels
Height : 572 pixels
Display aspect ratio : 16:10
Original display aspect rat : 16:10
Frame rate mode : Constant
Frame rate : 25.000 FPS
Color space : YUV
Chroma subsampling : 4:2:0
Bit depth : 8 bits
Scan type : Progressive
Bits/(Pixel*Frame) : 0.320
Stream size : 1.82 GiB (88%)
Writing library : core 148 r2638 7599210
Encoding settings : cabac=1 / ref=14 / deblock=1:-2:-2 / analyse=0x3:0x133 / me=umh / subme=10 / psy=1 / psy_rd=1.05:0.15 / mixed_ref=1 / me_range=32 / chroma_me=1 / trellis=2 / 8x8dct=1 / cqm=0 / deadzone=21,11 / fast_pskip=0 / chroma_qp_offset=-3 / threads=4 / lookahead_threads=1 / sliced_threads=0 / nr=0 / decimate=0 / interlaced=0 / bluray_compat=0 / constrained_intra=0 / bframes=16 / b_pyramid=2 / b_adapt=2 / b_bias=0 / direct=3 / weightb=1 / open_gop=0 / weightp=2 / keyint=250 / keyint_min=25 / scenecut=40 / intra_refresh=0 / rc=2pass / mbtree=0 / bitrate=3000 / ratetol=1.0 / qcomp=0.60 / qpmin=0 / qpmax=69 / qpstep=4 / cplxblur=20.0 / qblur=0.5 / ip_ratio=1.40 / pb_ratio=1.30 / aq=1:1.00
Language : English
Default : Yes
Forced : No
Color range : Limited
Color primaries : BT.601 NTSC
Transfer characteristics : BT.601
Matrix coefficients : BT.601

Audio #1
ID : 2
Format : AC-3
Format/Info : Audio Coding 3
Codec ID : A_AC3
Duration : 1 h 27 min
Bit rate mode : Constant
Bit rate : 192 kb/s
Channel(s) : 2 channels
Channel positions : Front: L R
Sampling rate : 48.0 kHz
Frame rate : 31.250 FPS (1536 SPF)
Bit depth : 16 bits
Compression mode : Lossy
Stream size : 120 MiB (6%)
Title : Inter
Language : Ukrainian
Service kind : Complete Main
Default : Yes
Forced : Yes

Audio #2
ID : 3
Format : AC-3
Format/Info : Audio Coding 3
Codec ID : A_AC3
Duration : 1 h 26 min
Bit rate mode : Constant
Bit rate : 224 kb/s
Channel(s) : 2 channels
Channel positions : Front: L R
Sampling rate : 48.0 kHz
Frame rate : 31.250 FPS (1536 SPF)
Bit depth : 16 bits
Compression mode : Lossy
Stream size : 139 MiB (7%)
Language : French
Service kind : Complete Main
Default : No
Forced : No
Скріншоти









Джерело:
Особиста оцінка: 8 - мені сподобалося


Срібний реліз (на рейтинг впливає 50% завантаженого)
 Трекер:    Зареєстрований   

Завантажити / скачати фільм українською



відео для новачків



 Зареєстрований:   2019-01-02 19:33
 Розмір:   2.08 GB 
 Оцінка фільму:   8.4/10 (Голосів: 7)
   
ssTAss 
Модератор музики


З нами з: 05.07.08
Востаннє: 20.11.19
Повідомлень: 15580

2019-01-02 21:55  
а чому взяли обкладинку з чеського видання, а не з французького?
тиць


Додано через 1 годину 23 хвилини 53 секунди:

о, дякую, оперативно замінили
ше таке питання - кращого ріпу немає в мережі? бо тут шось надто видовжено (AR має бути 1.66)
знайшов тільки на 1.37Гб
порівняйте

General
Complete name : Je.Suis.Timide.Mais.Je.Me.Soigne.1978.FRENCH...-HuSh.avi
Format : AVI
Format/Info : Audio Video Interleave
File size : 1.37 GiB
Duration : 1 h 27 min
Overall bit rate : 2 247 kb/s
Movie name : TOUT HUSH SUR team-hush.org
Law rating : Unrated
Original source form/Name : movie
IsTruncated : Yes

Video
ID : 0
Format : MPEG-4 Visual
Format profile : Advanced [email protected]
Format settings : BVOP1
Format settings, BVOP : 1
Format settings, QPel : No
Format settings, GMC : No warppoints
Format settings, Matrix : Default (MPEG)
Muxing mode : Packed bitstream
Codec ID :
Codec ID/Hint :
Duration : 1 h 27 min
Bit rate : 1 981 kb/s
Width : 640 pixels
Height : 384 pixels
Display aspect ratio : 5:3
Frame rate : 25.000 FPS
Color space : YUV
Chroma subsampling : 4:2:0
Bit depth : 8 bits
Scan type : Progressive
Compression mode : Lossy
Bits/(Pixel*Frame) : 0.322
Stream size : 1.20 GiB (88%)
Writing library : 1.2.1 (UTC 2008-12-04)

Audio
ID : 1
Format : AC-3
Format/Info : Audio Coding 3
Commercial name : Dolby Digital
Codec ID : 2000
Duration : 1 h 27 min
Bit rate mode : Constant
Bit rate : 256 kb/s
Channel(s) : 2 channels
Channel layout : L R
Sampling rate : 48.0 kHz
Frame rate : 31.250 FPS (1536 SPF)
Bit depth : 16 bits
Compression mode : Lossy
Stream size : 159 MiB (11%)
Alignment : Split accross interleaves
Interleave, duration : 40 ms (1.00 video frame)
Interleave, preload duration : 500 ms
Language : Undefined
Service kind : Complete Main

Anonymous 







2019-01-02 22:08  
ssTAss
Та все там норм коли в плеєрі зображення і не видовжене , це ж [email protected]

Ваш часовий пояс: GMT + 2 Години

Нова тема   Відповісти