Погані часи у «Ель Роялі» / Bad Times at the El Royale (2018) 1080p Ukr/Eng | Sub Ukr/Eng

Нові коментарі

Нова тема   Відповісти
Автор Повідомлення
staf777 
Відео Гуртом - підтримка та поширення
Відео Гуртом - підтримка та поширення


З нами з: 16.11.16
Востаннє: 18.04.19
Повідомлень: 2258

2019-01-02 13:43  
Погані часи у «Ель Роялі» / Bad Times at the El Royale (2018) 1080p Ukr/Eng | Sub Ukr/Eng


Альтернативний постер

«Усі дороги ведуть сюди»



Жанр: детектив, драма, кримінальний, трилер
Країна: США



Кінокомпанія: Goddard Textiles, TSG Entertainment, Twentieth Century Fox
Режисер: Дрю Годдард
Актори: Джефф Бріджес, Синтія Еріво, Дакота Джонсон, Джон Хемм, Кріс Гемсворт, Кайлі Спейні, Льюїс Пуллман, Нік Офферман, Ксав'є Долан, Ши Вігхем

Сюжет:
У «Ель-Роялі», занедбаному готелі з темним минулим на березі озера Тахо, зустрічаються семеро незнайомців, кожному з яких є що приховувати. Протягом однієї рокової ночі кожен матиме останній шанс на спокуту... до того, як усе піде прахом.


Тривалість: 02:21:37
Якість: 1080p

Відео:
кодек:
розмір кадру: 1920x804
бітрейт: 10 Mб/с

Аудіо # 1:
мова: українська
переклад: професійний дубльований
кодек: 5.1
бітрейт: 448 кб/с

Аудіо # 2:
мова: англійська
переклад: оригінал
кодек: 5.1
бітрейт: 640 кб/с

Субтитри # 1-2: (Forced+Full)
мова: українська
тип: програмні (м'які)
формат: *.srt

Субтитри # 3-4: (Full+SDH)
мова: англійська
тип: програмні (м'які)
формат: *.srt
Info
Код:

General
Unique ID                   : 185166585908044541945806028497218242186 (0x8B4DC98937B91B3CF032F730FBCD068A)
Complete name               : I:\» HD українською » Фільми в HD\Трилер\Bad Times at the El Royale (2018) 1080p [UKR][ENG][Hurtom].
Format                      :
Format version              : Version 4
File size                   : 11.0 GiB
Duration                    : 2 h 21 min
Overall bit rate            : 11.1 Mb/s
Movie name                  : Bad Times at the El Royale (2018) 1080p [UKR][ENG][Hurtom]
Encoded date                : UTC 2019-02-07 19:22:32
Writing application         : v30.1.0 ('Forever And More') 64-bit
Writing library             : libebml v1.3.6 + v1.4.9
Cover                       : Yes
Attachments                 : cover

Video
ID                          : 1
Format                      : AVC
Format/Info                 : Advanced Video Codec
Format profile              : [email protected]
Format settings             : CABAC / 5 Ref Frames
Format settings, CABAC      : Yes
Format settings, ReFrames   : 5 frames
Codec ID                    : V_MPEG4/ISO/AVC
Duration                    : 2 h 21 min
Bit rate                    : 10 000 kb/s
Width                       : 1 920 pixels
Height                      : 804 pixels
Display aspect ratio        : 2.40:1
Frame rate mode             : Constant
Frame rate                  : 23.976 (24000/1001) FPS
Color space                 : YUV
Chroma subsampling          : 4:2:0
Bit depth                   : 8 bits
Scan type                   : Progressive
Bits/(Pixel*Frame)          : 0.270
Stream size                 : 9.89 GiB (90%)
Writing library             : core 130 r2273 b3065e6
Encoding settings           : cabac=1 / ref=5 / deblock=1:-3:-3 / analyse=0x3:0x113 / me=umh / subme=11 / psy=1 / psy_rd=1.00:0.00 / mixed_ref=1 / me_range=32 / chroma_me=1 / trellis=2 / 8x8dct=1 / cqm=0 / deadzone=21,11 / fast_pskip=0 / chroma_qp_offset=-4 / threads=12 / lookahead_threads=2 / sliced_threads=0 / nr=0 / decimate=0 / interlaced=0 / bluray_compat=0 / constrained_intra=0 / bframes=8 / b_pyramid=2 / b_adapt=2 / b_bias=0 / direct=3 / weightb=1 / open_gop=0 / weightp=2 / keyint=250 / keyint_min=23 / scenecut=40 / intra_refresh=0 / rc_lookahead=85 / rc=2pass / mbtree=1 / bitrate=10000 / ratetol=1.0 / qcomp=0.60 / qpmin=0 / qpmax=69 / qpstep=4 / cplxblur=20.0 / qblur=0.5 / ip_ratio=1.40 / aq=1:0.80
Language                    : English
Default                     : No
Forced                      : No

Audio #1
ID                          : 2
Format                      : AC-3
Format/Info                 : Audio Coding 3
Commercial name             : Dolby Digital
Codec ID                    : A_AC3
Duration                    : 2 h 21 min
Bit rate mode               : Constant
Bit rate                    : 448 kb/s
Channel(s)                  : 6 channels
Channel layout              : L R C LFE Ls Rs
Sampling rate               : 48.0 kHz
Frame rate                  : 31.250 FPS (1536 SPF)
Bit depth                   : 16 bits
Compression mode            : Lossy
Stream size                 : 454 MiB (4%)
Language                    : Ukrainian
Service kind                : Complete Main
Default                     : Yes
Forced                      : Yes

Audio #2
ID                          : 3
Format                      : AC-3
Format/Info                 : Audio Coding 3
Commercial name             : Dolby Digital
Codec ID                    : A_AC3
Duration                    : 2 h 21 min
Bit rate mode               : Constant
Bit rate                    : 640 kb/s
Channel(s)                  : 6 channels
Channel layout              : L R C LFE Ls Rs
Sampling rate               : 48.0 kHz
Frame rate                  : 31.250 FPS (1536 SPF)
Bit depth                   : 16 bits
Compression mode            : Lossy
Stream size                 : 648 MiB (6%)
Language                    : English
Service kind                : Complete Main
Default                     : No
Forced                      : No

Text #1
ID                          : 4
Format                      : UTF-8
Codec ID                    : S_TEXT/UTF8
Codec ID/Info               : UTF-8 Plain Text
Duration                    : 2 h 11 min
Bit rate                    : 0 b/s
Count of elements           : 14
Stream size                 : 525 Bytes (0%)
Title                       : Forced
Language                    : Ukrainian
Default                     : Yes
Forced                      : Yes

Text #2
ID                          : 5
Format                      : UTF-8
Codec ID                    : S_TEXT/UTF8
Codec ID/Info               : UTF-8 Plain Text
Duration                    : 2 h 17 min
Bit rate                    : 51 b/s
Count of elements           : 1323
Stream size                 : 51.7 KiB (0%)
Title                       : Full
Language                    : Ukrainian
Default                     : No
Forced                      : No

Text #3
ID                          : 6
Format                      : UTF-8
Codec ID                    : S_TEXT/UTF8
Codec ID/Info               : UTF-8 Plain Text
Duration                    : 2 h 13 min
Bit rate                    : 41 b/s
Count of elements           : 1467
Stream size                 : 40.5 KiB (0%)
Title                       : Full
Language                    : English
Default                     : No
Forced                      : No

Menu
00:00:00.000                : en:Chapter 1
00:04:19.592                : en:Chapter 2
00:19:21.994                : en:Chapter 3
00:34:32.779                : en:Chapter 4
00:49:24.711                : en:Chapter 5
00:51:19.868                : en:Chapter 6
01:16:01.473                : en:Chapter 7
01:37:13.369                : en:Chapter 8
02:03:56.720                : en:Chapter 9
02:14:09.041                : en:Chapter 10
02:15:45.428                : en:Chapter 11
Скріншоти:
Джерело: &
Особиста оцінка: 0 - не дивився


 Трекер:    Зареєстрований   

Завантажити / скачати фільм українською



відео для новачків



 Зареєстрований:   2019-02-07 22:32
 Розмір:   10.97 GB 
 Оцінка фільму:   8.6/10 (Голосів: 54)
   
DoroshOrest 
Новенький


З нами з: 23.10.13
Востаннє: 13.04.19
Повідомлень: 4

2019-01-05 01:44  
10/10 Рекомендую до перегляду!
poolvetrum 
VIP


З нами з: 01.06.14
Востаннє: 17.04.19
Повідомлень: 276

2019-01-05 19:01  
Якби не знав хто режисер, то першим назвав би Тарантіно. Є певний закос під його стиль, а надто під сюжет "Мерзенної вісімки". Та хоч "Ель Рояль" і сильно віддає тарантинівщиною, він по-своєму чудовий і цікавий, з лихим сюжетом, що не дасть нудьгувати. Впевнений, що повернусь до нього ще колись. 8/10.
AlbertTol 
Новенький


З нами з: 12.11.17
Востаннє: 17.04.19
Повідомлень: 21

2019-01-12 03:43  
Трошки збірна солянка але в цілому дуже не поганий трилер який цікаво дивитися.
Siegfried 
Поважний учасник


З нами з: 01.11.11
Востаннє: 17.04.19
Повідомлень: 249

2019-01-20 18:16  
Початок і музичний супровід - це найкраще, що тут є.

Чим далі, тим більш мляво і перетягнуто.

Хвилин 30 можна було сміло вирізати.

Одна з найцікавіших сюжетних ліній тупо обривається без нормального пояснення.

Якби не необгрунтована затягнутість і недопрацьованість сюжету, то можна було би радити.

З великим натягом 4 з 10.

staf777 
Відео Гуртом - підтримка та поширення
Відео Гуртом - підтримка та поширення


З нами з: 16.11.16
Востаннє: 18.04.19
Повідомлень: 2258

2019-02-07 09:20  
Замінив доріжку на
На жаль ремукс був на ЖД що накрився - зараз поставлю вантажить десь в обід оновлю

11FrYkT 
Модератор відео


З нами з: 20.02.11
Востаннє: 18.04.19
Повідомлень: 5787

2019-02-07 10:10  
А субтитри чому не додали?
Kirby 
Новенький


З нами з: 29.09.12
Востаннє: 14.04.19
Повідомлень: 9

2019-02-07 21:24  
6/10
Спойлер
Дірка в сюжеті
Нащо було вводити в сюжет того копа і валити його через 10 хв... Хто він і що він тут робить - думайте самі
Також, явно не розповіли що це за плівка і в чому полягає її вартість

ProgBassing 
Попереджень: 1
Попереджень: 1 


З нами з: 08.03.08
Востаннє: 16.04.19
Повідомлень: 874

2019-02-07 22:14  
Kirby написано:
вводити в сюжет


бо так треба було!
що, правда не додумались?!
це перше, а друге - не так і важливо, тому що компромат ...принаймні поки що

і перше і друге, зачіпки для гарного продовження, від чого (з його появою) дане кіно сприйматиметься вже без "дірок"

staf777 
Відео Гуртом - підтримка та поширення
Відео Гуртом - підтримка та поширення


З нами з: 16.11.16
Востаннє: 18.04.19
Повідомлень: 2258

2019-02-07 22:33  
Додав саби
munipet 
Поважний учасник


З нами з: 14.04.11
Востаннє: 18.04.19
Повідомлень: 247

2019-02-08 11:07  
Дакота Джонс в цьому фільмі ,якаж вона бездарна акторка ,ну хіба що для порно піде !
ProgBassing 
Попереджень: 1
Попереджень: 1 


З нами з: 08.03.08
Востаннє: 16.04.19
Повідомлень: 874

2019-02-08 11:47  
munipet написано:
бездарна


вже сама її присутність в цьому фільмі свідчить про її талановитість як акторки, це по-перше
а якщо ще й не бути заскоченим на Ґреях то можна навіть насолоджуватися її грою
...і особливою тонкою вродою теж, хоч багатьом "знавцям" прекрасного вона красунею не здається ))

+ у фільмі її називають "кавказкою" а в перекладі "білою жінкою", так от цей дуже тонкий момент тупо згладжено в дубляжі, а вона ж так й справді скидається на кавказький тип жінки!

forever_maggot 
VIP


З нами з: 12.06.09
Востаннє: 13.04.19
Повідомлень: 395

2019-02-08 17:35  
ProgBassing написано:
у фільмі її називають "кавказкою" а в перекладі "білою жінкою", так от цей дуже тонкий момент тупо згладжено в дубляжі, а вона ж так й справді скидається на кавказький тип жінки!

Caucasian перш за все означає людину європеоїдної раси, а вже потім кавказців. Це так званий зрадливий друг перекладача.

ProgBassing 
Попереджень: 1
Попереджень: 1 


З нами з: 08.03.08
Востаннє: 16.04.19
Повідомлень: 874

2019-02-08 19:03  
forever_maggot написано:
зрадливий друг


ок, технічно переклад правильний, але вважаю в даному випадку - це втрачений елемент, бо американка Дакота таки відчутно тягне на саме кавказький тип европеоїда і в цьому, як мені здається, прихована таємниця її вроди, яку я довго не міг вловити і пояснити для себе

також не варто забувати про наявний кіно-контекст цього прикладу!

Nefrite 
Новенький


З нами з: 17.11.16
Востаннє: 18.04.19
Повідомлень: 3

2019-02-09 02:29  
тарантіно на мінімалках Sad (1) слабенький фільм
Ваш часовий пояс: GMT + 2 Години

Нова тема   Відповісти