Фліппер / Flipper (1996) AVC Ukr/Eng | Sub Eng

Нові коментарі

Нова тема   Відповісти
Автор Повідомлення
staf777 
Відео Гуртом - підтримка та поширення
Відео Гуртом - підтримка та поширення


З нами з: 16.11.16
Востаннє: 10.08.20
Повідомлень: 3934

2019-01-02 13:31  
Фліппер / Flipper (1996) AVC Ukr/Eng | Sub Eng



Жанр: сімейний, пригодницький
Країна: США



Кінокомпанія: Universal Pictures
Режисер: Алан Шапіро
Актори: Елайджа Вуд, Пол Хоган, Джонатан Бенкс, Роберт Дікон, Енн Кері, Марк Каселла, Люк Хелпін, Білл Келлі, Челсі Філд, Джейсон Фучс

Сюжет:
Хлопчик приїжджає до свого дядька на острів, де йому все не до вподоби - друзів немає, на рок-концерт не підеш, а на вечерю тільки макарони. Але все міняється після того, як він рятує на рибалці дельфіна Фліппера, який стає його другом, і знайомиться з симпатичною дівчинкою.


Тривалість: 01:35:21
Якість: AVC
Відео:
кодек:
розмір кадру: 1100x468
бітрейт: 3599 кб/с

Аудіо # 1:
мова: українська
переклад: багатоголосий закадровий
кодек: 2.0
бітрейт: 192 кб/с

Аудіо # 2:
мова: англійська
переклад: оригінал
кодек: 5.1
бітрейт: 384 кб/с

Субтитри# 1-2:
мова: англійська
тип: програмні (м'які)
формат: *.srt

Джерело озвучення:
Info
General
Unique ID : 66668148053188829547315854078810992185 (0x3227D179F65CACEC694B6600532F2E39)
Complete name : Z:\Фільми AVC\Пригодницький\Flipper (1996) AVC [UKR][ENG][Hurtom].
Format :
Format version : Version 4
File size : 2.78 GiB
Duration : 1 h 35 min
Overall bit rate : 4 177 kb/s
Movie name : Фліппер / Flipper (1996) AVC [UKR][ENG][Hurtom]
Encoded date : UTC 2020-07-18 09:37:35
Writing application : v46.0.0 ('No Deeper Escape') 64-bit
Writing library : libebml v1.3.10 + v1.5.2
Cover : Yes
Attachments : cover.jpg

Video
ID : 1
Format : AVC
Format/Info : Advanced Video Codec
Format profile : [email protected]
Format settings : CABAC / 14 Ref Frames
Format settings, CABAC : Yes
Format settings, Reference : 14 frames
Codec ID : V_MPEG4/ISO/AVC
Duration : 1 h 35 min
Bit rate : 3 599 kb/s
Width : 1 100 pixels
Height : 468 pixels
Display aspect ratio : 2.35:1
Frame rate mode : Constant
Frame rate : 23.976 (24000/1001) FPS
Color space : YUV
Chroma subsampling : 4:2:0
Bit depth : 8 bits
Scan type : Progressive
Bits/(Pixel*Frame) : 0.292
Stream size : 2.40 GiB (86%)
Title : Flipper (1996) AVC by HQCLUB [Elheym]
Writing library : core 142 r2479kMod dd79a61
Encoding settings : cabac=1 / ref=14 / deblock=1:-3:-2 / analyse=0x3:0x133 / me=umh / subme=11 / psy=1 / fade_compensate=0.00 / psy_rd=1.08:0.00 / mixed_ref=1 / me_range=32 / chroma_me=1 / trellis=2 / 8x8dct=1 / cqm=0 / deadzone=21,11 / fast_pskip=0 / chroma_qp_offset=-4 / threads=6 / lookahead_threads=1 / sliced_threads=0 / nr=0 / decimate=0 / interlaced=0 / bluray_compat=0 / constrained_intra=0 / fgo=0 / bframes=13 / b_pyramid=2 / b_adapt=2 / b_bias=0 / direct=1 / weightb=1 / open_gop=0 / weightp=2 / keyint=230 / keyint_min=23 / scenecut=40 / intra_refresh=0 / rc_lookahead=40 / rc=crf / mbtree=1 / crf=18.0000 / qcomp=0.70 / qpmin=0 / qpmax=69 / qpstep=4 / vbv_maxrate=50000 / vbv_bufsize=62500 / crf_max=0.0 / nal_hrd=none / filler=0 / ip_ratio=1.40 / aq=2:0.90 / zones=130920,137188,q=38
Language : English
Default : Yes
Forced : No

Audio #1
ID : 2
Format : AC-3
Format/Info : Audio Coding 3
Commercial name : Dolby Digital
Codec ID : A_AC3
Duration : 1 h 35 min
Bit rate mode : Constant
Bit rate : 192 kb/s
Channel(s) : 2 channels
Channel layout : L R
Sampling rate : 48.0 kHz
Frame rate : 31.250 FPS (1536 SPF)
Compression mode : Lossy
Stream size : 131 MiB (5%)
Title : [UKR-MVO-H]
Language : Ukrainian
Service kind : Complete Main
Default : Yes
Forced : Yes

Audio #2
ID : 3
Format : AC-3
Format/Info : Audio Coding 3
Commercial name : Dolby Digital
Codec ID : A_AC3
Duration : 1 h 35 min
Bit rate mode : Constant
Bit rate : 384 kb/s
Channel(s) : 6 channels
Channel layout : L R C LFE Ls Rs
Sampling rate : 48.0 kHz
Frame rate : 31.250 FPS (1536 SPF)
Compression mode : Lossy
Stream size : 262 MiB (9%)
Title : АС3 5.1 @ 384 kbps - Original
Language : English
Service kind : Complete Main
Default : No
Forced : No

Text #1
ID : 4
Format : UTF-8
Codec ID : S_TEXT/UTF8
Codec ID/Info : UTF-8 Plain Text
Duration : 1 h 26 min
Bit rate : 42 b/s
Count of elements : 918
Stream size : 26.7 KiB (0%)
Title : Full
Language : English
Default : No
Forced : No

Text #2
ID : 5
Format : UTF-8
Codec ID : S_TEXT/UTF8
Codec ID/Info : UTF-8 Plain Text
Duration : 1 h 26 min
Bit rate : 46 b/s
Count of elements : 1068
Stream size : 29.3 KiB (0%)
Title : Full SDH
Language : English
Default : No
Forced : No

Menu
00:00:00.000 : en:00:00:00.000
00:04:05.620 : en:00:04:05.620
00:09:22.020 : en:00:09:22.020
00:14:11.893 : en:00:14:11.893
00:19:19.450 : en:00:19:19.450
00:24:41.689 : en:00:24:41.689
00:29:37.234 : en:00:29:37.234
00:35:33.465 : en:00:35:33.465
00:39:28.658 : en:00:39:28.658
00:45:47.536 : en:00:45:47.536
00:50:59.682 : en:00:50:59.682
00:55:26.114 : en:00:55:26.114
00:59:17.888 : en:00:59:17.888
01:05:54.284 : en:01:05:54.284
01:11:29.327 : en:01:11:29.327
01:17:35.526 : en:01:17:35.526
01:23:54.571 : en:01:23:54.571
01:30:14.618 : en:01:30:14.618





Запис з ТБ: karvai0 Синхронізація:speedwaykaskad
Джерело: &
Особиста оцінка: 8 - мені сподобалося
Фліппер / Flipper (1996) AVC Ukr/Eng | Sub Eng Фліппер / Flipper (1996) AVC Ukr/Eng | Sub Eng


Срібний реліз (на рейтинг впливає 50% завантаженого)
 Трекер:    Зареєстрований   

Завантажити / скачати фільм українською



відео для новачків



 Зареєстрований:   2020-07-18 12:57
 Розмір:   2.78 GB 
 Оцінка фільму:   9/10 (Голосів: 10)
   
Інші релізи
   Фліппер / Flipper (1996) 720p Ukr/Eng| Sub Eng радик  1 / 0   4.22 GB   2018-11-20 18:35 
   Фліппер / Flipper (1996) Ukr/Eng speedwaykaskad  2 / 0   1.58 GB   2012-07-05 17:38 
staf777 
Відео Гуртом - підтримка та поширення
Відео Гуртом - підтримка та поширення


З нами з: 16.11.16
Востаннє: 10.08.20
Повідомлень: 3934

2020-07-18 12:58  
Цитата:
Останній раз роздавалося staf777 (2020-03-14)

Реліз відновлено

star-space 
Частий відвідувач


З нами з: 22.12.17
Востаннє: 11.08.20
Повідомлень: 37

2020-07-18 18:20  
В цьому фільмі в Елайджи очі вже витріщені чи ще нє?
Ваш часовий пояс: GMT + 2 Години

Нова тема   Відповісти