Буває й гірше (Сезон 9) / The Middle (Season 9) (2017-2018) 720p Ukr/Eng

Нові коментарі

Нова тема   Відповісти
Останній раз роздавалося oksi01 (2020-11-20)
Автор Повідомлення
Anonymous 







2019-01-01 19:18  
Буває й гірше (Сезон 9) / The Middle (Season 9) (2017-2018) 720p Ukr/Eng



Жанр: ситком, комедія
Країна: США



Кінокомпанія: Columbia/Warner Bros. Ranch - 411 North Hollywood Way, Burbank, California, USA
Режисер: Лі Шаллат Чемел, Кріс Кох, Кен Уіттінгем
Актори: Патріція Хітон, Ніл Флінн, Чарлі МакДермотт, Іден Шер та Брук Шилдс

Сюжет:
Фінальний сезон серіалу про сімейку Геків та їх життя.


Тривалість: 1 серія: 22хв (цілком серій: 24 з 24)
Перелік серій
1.Vive La Hecks
2.Please Don't Feed the Hecks
3.Meet the Parents
4.Halloween VIII: Orson Murder Mystery
5.Role of a Lifetime
6.The Setup
7.Thanksgiving IX
8.Eyes Wide Open
9.The 200th
10.The Christmas Miracle
11.New Year's Revelations
12.The Other Man
13.Mommapalooza
14.Guess Who's Coming to Frozen Dinner
15.Toasted
16.The Crying Game
17.Heck vs. Glossners: The Final Battle
18.Thank You For Not Kissing
19.Bat Out Of Heck
20.Great Heckspectations
21.The Royal Flush
22.Split Decision
23.A Heck of a Ride P.1
24.A Heck of a Ride P.2
Якість:
Відео:
кодек:
розмір кадру: 1280 х 718
бітрейт: 4251 кб/с

Аудіо # 1:
мова: українська
переклад: багатоголосий закадровий
кодек: 2.0
бітрейт: 192 кб/с

Аудіо # 2:
мова: англійська
переклад: оригінал
кодек: 5.1
бітрейт: 384 кб/с

Джерело озвучення:
Info
Complete name : D:\Serials\The.Middle(s09)..720p.Ukr.Eng\The.Middle.s09e01..720p.Ukr.Eng[Hurtom].
Format :
Format version : Version 4
File size : 723 MiB
Duration : 20 min 55 s
Overall bit rate : 4 829 kb/s
Encoded date : UTC 2019-01-01 15:50:18
Writing application : v27.0.0 ('Metropolis') 64-bit
Writing library : libebml v1.3.6 + v1.4.9

Video
ID : 1
Format : AVC
Format/Info : Advanced Video Codec
Format profile : [email protected]
Format settings : 2 Ref Frames
Format settings, CABAC : No
Format settings, ReFrames : 2 frames
Codec ID : V_MPEG4/ISO/AVC
Duration : 20 min 55 s
Bit rate : 4 251 kb/s
Width : 1 280 pixels
Height : 718 pixels
Display aspect ratio : 16:9
Frame rate mode : Constant
Frame rate : 25.000 FPS
Color space : YUV
Chroma subsampling : 4:2:0
Bit depth : 8 bits
Scan type : Progressive
Bits/(Pixel*Frame) : 0.185
Stream size : 636 MiB (88%)
Language : English
Default : Yes
Forced : No
Color range : Limited
Color primaries : BT.709
Transfer characteristics : BT.709
Matrix coefficients : BT.709

Audio #1
ID : 2
Format : AC-3
Format/Info : Audio Coding 3
Commercial name : Dolby Digital
Codec ID : A_AC3
Duration : 20 min 49 s
Bit rate mode : Constant
Bit rate : 192 kb/s
Channel(s) : 2 channels
Channel layout : L R
Sampling rate : 48.0 kHz
Frame rate : 31.250 FPS (1536 SPF)
Bit depth : 16 bits
Compression mode : Lossy
Stream size : 28.6 MiB (4%)
Language : Ukrainian
Service kind : Complete Main
Default : Yes
Forced : No

Audio #2
ID : 3
Format : AC-3
Format/Info : Audio Coding 3
Commercial name : Dolby Digital
Codec ID : A_AC3
Duration : 20 min 55 s
Bit rate mode : Constant
Bit rate : 384 kb/s
Channel(s) : 6 channels
Channel layout : L R C LFE Ls Rs
Sampling rate : 48.0 kHz
Frame rate : 31.250 FPS (1536 SPF)
Bit depth : 16 bits
Compression mode : Lossy
Stream size : 57.5 MiB (8%)
Language : English
Service kind : Complete Main
Default : No
Forced : No
Скріншоти





Подяка: Пану, що побажав залишитися анонімним за звукові доріжки.
Джерело:
Особиста оцінка: 10 - без зайвих вагань рекомендую всім!


Бронзовий реліз (на рейтинг впливає 75% завантаженого)
 Трекер:    Зареєстрований   

Завантажити / скачати серіал українською



відео для новачків



 Зареєстрований:   2019-05-02 15:29
 Розмір:   16.81 GB 
 Оцінка серіалу:   10/10 (Голосів: 10)
   
Anоnymous 
VIP


З нами з: 25.08.18
Востаннє: 04.06.19
Повідомлень: 808

2019-01-01 19:46  
Так є ж 12 серій записаних
Anonymous 







2019-01-01 19:52  
Anоnymous написано:
Так є ж 12 серій записаних

спина горить сидіти і далі робити, по трошки розіб'ю їх.

Anоnymous 
VIP


З нами з: 25.08.18
Востаннє: 04.06.19
Повідомлень: 808

2019-01-01 19:54  
достань мені звук з них я зроблю. все одно сиджу зараз без діла
Anonymous 







2019-01-02 17:31  
...
SurFutur 
VIP


З нами з: 12.03.15
Востаннє: 25.11.20
Повідомлень: 509

2019-02-12 17:54  
Anonymous

Відсьогодні має стартувати показ другої частини сезону. І надалі транслюватимуть щовівторка о 21:00. Оновлюватимете реліз? І якщо так, то щотижня чи як?

Anonymous 







2019-02-17 17:43  
..
SpeeDDingo 
Новенький


З нами з: 09.05.10
Востаннє: 25.07.20
Повідомлень: 14

2019-03-02 17:49  
Ще раз дякую релізеру за серії) Дуже крутий серіал, вмикаєш і відволікаєшся від рутини :|>
Anonymous 







2019-03-10 11:40  
+ 17 серія
vova2804 
Поважний учасник


З нами з: 16.02.13
Востаннє: 22.11.20
Повідомлень: 170

2019-04-03 20:46  
коли будуть 18-23? дякую!
Anonymous 







2019-04-07 14:11  
+18-20 серії

vova2804 написано:
18-23?

як покаже канал так і з'являться.
приблизно 3 тижні, якщо вони не будуть робити перерву у показі.

SurFutur 
VIP


З нами з: 12.03.15
Востаннє: 25.11.20
Повідомлень: 509

2019-04-22 19:50  
Anonymous
Цитата:
(Season 9, episodes 20 of 23)

23.A Heck of a Ride


Не знаю, чи в курсі Ви, але про всяк випадок хотів би зауважити, що остання серія є найдовшою в серіалі. По суті, це дві серії в одній, і Paramount Comedy показуватиме їх у розбитому вигляді як 23-у (завтра) та 24-у (за тиждень). У мережі, здається, є відеофайли для обох варіантів, тому можете дочекатися показу обох серій і зарелізити як одну, і тоді буде 23 серії. Або зробити дві серії окремо, так само, як і транслюватиме канал, але тоді це вже буде 24 серії (23.A Heck of a Ride: Part 1 та 24.A Heck of a Ride: Part 2).

Anonymous 







2019-05-02 15:30  
+ 23 -24 серії (вони здвоєні в одну)
фінал сезону і серіалу.

Anonymous 







2019-05-05 16:01  
Увага! Уходжу з роздачі назавжди. Останній сезон у 720р можна завантажити тут -----> https://toloka.to/t98593
Ваш часовий пояс: GMT + 2 Години

Нова тема   Відповісти