Левина варта / The Lion Guard (Сезон 2) (2018) 1080p Ukr/Eng

Нові коментарі

Нова тема   Відповісти
Автор Повідомлення
sergiyko.5 
Забанено
Забанено


З нами з: 25.02.16
Востаннє: 29.10.20
Повідомлень: 3648

2019-01-01 17:01  


Левина варта / The Lion Guard (Сезон 2) (2018) 1080p Ukr/Eng

Левина варта / The Lion Guard (Сезон 2) (2018) 1080p Ukr/Eng

Жанр: пригоди, комедія
Країна: США
Кінокомпанія: Disney Television Animation, Lioness Productions
Режисер: Хауі Паркінс

Сюжет:
"Левина варта" - це продовження історії Сімби, головного героя мультфільму "Король Лев". Левеня на ім'я Кайон – друге дитинча Сімби й Нали, молодший брат Кіари. Настав час, коли Кайон, несподівано для себе, опановує Рик Предків – здатність всіх других дітей королівської родини, завдяки якій стають лідерами Левиної Варти. Левина Варта – загін із 5 левів, що захищають землі прайду і коло життя: найлютіший лідер, найсміливіший, найсильніший, найшвидший і найпильніший. Але замість того, щоб зібрати загін левів, Кайон збирає товариство різних звірів, у здібностях і вірності яких упевнений.




Тривалість: 22:35 серія (загалом 29 серій з 29)
Якість:

Відео: кодек: розмір кадру: 1920 х 1080 бітрейт: 4900 кб/с
Аудіо 1: мова: українська переклад: професійний дубльований кодек: 2.0 бітрейт: 192 кб/с
Джерело озвучення:
Аудіо 2: мова: англійська переклад: оригінал кодек: 2.0 бітрейт: 160 кб/с
Перелік серій:
01 Babysitter Bunga
02 The Savannah Summit
03 The Traveling Baboon Show
04 Ono and the Egg
05 The Rise of Scar
06 Let Sleeping Crocs Lie
07 Swept Away
08 Rafiki's New Neighbors
09 Rescue in the Outlands
10 The Ukumbusho Tradition
11 The Bite of Kenge
12 Timon and Pumbaa's Christmas
13 The Morning Report
14 The Golden Zebra
15 The Little Guy
16 Divide and Conquer
17 The Scorpion's Sting
18 The Wisdom of Kongwe
19 The Kilio Valley Fire
20 Undercover Kinyonga
21 Cave of Secrets
22 The Zebra Mastermind
23 The Hyena Resistance
24 The Underground Adventure
25 Beshte and the Beast
26 Pride Landers Unite
27 The Queen`s Visit
28 The Fall of Mizimu Grove
29 Fire From The Sky
Про файл:
General
Unique ID : 149574790560146375601233404128598983443 (0x70870E8ADF50B34EDFA4FACD66648313)
Complete name : G:\Torrents2\MULT\MuSERIAL\The Lion Guard S02 1080p \S02E01.Babysitter Bunga.1080p..
Format :
Format version : Version 4
File size : 840 MiB
Duration : 22 min 30 s
Overall bit rate : 5 220 kb/s
Movie name : The Lion Guard S02 1080p by sergiyko
Encoded date : UTC 2019-01-01 13:39:17
Writing application : v29.0.0 ('Like It Or Not') 64-bit
Writing library : libebml v1.3.6 + v1.4.9

Video
ID : 1
Format : AVC
Format/Info : Advanced Video Codec
Format profile : [email protected]
Format settings : CABAC / 2 Ref Frames
Format settings, CABAC : Yes
Format settings, ReFrames : 2 frames
Codec ID : V_MPEG4/ISO/AVC
Duration : 22 min 29 s
Bit rate : 4 899 kb/s
Width : 1 920 pixels
Height : 1 080 pixels
Display aspect ratio : 16:9
Frame rate mode : Constant
Frame rate : 24.000 FPS
Color space : YUV
Chroma subsampling : 4:2:0
Bit depth : 8 bits
Scan type : Progressive
Bits/(Pixel*Frame) : 0.098
Stream size : 788 MiB (94%)
Title : S02E01.Babysitter Bunga
Language : English
Default : Yes
Forced : No

Audio #1
ID : 2
Format : AC-3
Format/Info : Audio Coding 3
Commercial name : Dolby Digital
Codec ID : A_AC3
Duration : 22 min 29 s
Bit rate mode : Constant
Bit rate : 192 kb/s
Channel(s) : 2 channels
Channel layout : L R
Sampling rate : 48.0 kHz
Frame rate : 31.250 FPS (1536 SPF)
Bit depth : 16 bits
Compression mode : Lossy
Stream size : 30.9 MiB (4%)
Title : DUB 2ch | ПлюсПлюс
Language : Ukrainian
Service kind : Complete Main
Default : Yes
Forced : Yes

Audio #2
ID : 3
Format : LC SBR
Format/Info : Advanced Audio Codec Low Complexity with Spectral Band Replication
Commercial name : HE-
Format settings : Implicit
Codec ID : A_AAC-2
Duration : 22 min 30 s
Bit rate : 127 kb/s
Channel(s) : 2 channels
Channel layout : L R
Sampling rate : 48.0 kHz
Frame rate : 23.438 FPS (2048 SPF)
Compression mode : Lossy
Stream size : 20.4 MiB (2%)
Title : Original
Language : English
Default : No
Forced : No
Скріншоти:


Запис/зведення: sergiyko


Бронзовий реліз (на рейтинг впливає 75% завантаженого)
 Трекер:    Зареєстрований   

Завантажити / скачати мультфільм українською



відео для новачків



 Зареєстрований:   2019-04-27 12:34
 Розмір:   25.63 GB 
 Оцінка мультсеріалу:   10/10 (Голосів: 11)
   
sergiyko.5 
Забанено
Забанено


З нами з: 25.02.16
Востаннє: 29.10.20
Повідомлень: 3648

2019-01-04 18:16  
Додав нові серії.
alexandr_b 
Частий відвідувач


З нами з: 11.03.09
Востаннє: 07.04.21
Повідомлень: 49

2019-01-07 13:22  
Дякую вам. Моя дитина обожнює цей серіал.
sergiyko.5 
Забанено
Забанено


З нами з: 25.02.16
Востаннє: 29.10.20
Повідомлень: 3648

2019-01-16 15:31  
Додав нові серії. На відсутні не можу знайти якісне відео.
Anоnymous 
VIP


З нами з: 25.08.18
Востаннє: 04.06.19
Повідомлень: 806

2019-01-16 19:27  
фуууууууу
там що мультяшнотваринний секс є судячи із другого скріну
БАН!

alexandr_b 
Частий відвідувач


З нами з: 11.03.09
Востаннє: 07.04.21
Повідомлень: 49

2019-02-03 21:12  
Банга напав на шакала, телепень! (Других слів немає)
sergiyko.5 
Забанено
Забанено


З нами з: 25.02.16
Востаннє: 29.10.20
Повідомлень: 3648

2019-04-27 12:38  
Додав серії до повного сезону. Приємного перегляду!
dora2006 
Новенький


З нами з: 26.12.15
Востаннє: 28.03.21
Повідомлень: 3

2019-11-30 00:18  
Коли буде 3 сезон ?
sergiyko.5 
Забанено
Забанено


З нами з: 25.02.16
Востаннє: 29.10.20
Повідомлень: 3648

2019-11-30 01:07  
dora2006
Завтра, біля метро Либідська.

DDBj 
VIP


З нами з: 09.01.12
Востаннє: 15.04.21
Повідомлень: 783

2019-11-30 11:14  
dora2006 написано:
Коли буде 3 сезон ?

Дочекайтесь офіційного показу на телебаченні, тоді, якщо у пана релізера буде час і натхнення, він запише й роздасть. Раніше телевізійного показу питати нема сенсу, бо нові епізоди ніде брати. Стежте за телепрограмою, її можна знайти у пошуковій системі Google. Гарного настрою.

Ваш часовий пояс: GMT + 2 Години

Нова тема   Відповісти