Чортовийки (Сезон 1, 2 серії з ) (2019) SATRemux

Нові коментарі

Нова тема   Відповісти
Автор Повідомлення
sergiyko.5 
VIP


З нами з: 25.02.16
Востаннє: 21.01.19
Повідомлень: 2109

2019-01-01 13:32  
Чортовийки (Сезон 1, 2 серії з ) (2019) SATRemux

Чортовийки (Сезон 1, 2 серії з ) (2019) SATRemux

Жанр: ситком, комедія, пародія
Країна: Україна
Студія: NLO-TV
Режисер: Олесь Юсипчук, Олександр Нарижнєв

Сюжет:
«Чортовийки» – це невеличке, відрізане від світу провінційне містечко. Троє друзів – Данко, Шпиндик і Левко, різні за характером підлітки, переживають пригоди, разом потрапляють у різні халепи і разом виплутуються з них. Вони протистоять цілому місту інтернет-зомбі, починають підпільне виробництво «Копі-Лювак», борються з велетенськими слимаками-мутантами, шукають легендарні козацькі скарби. Хоч би якими складними здавалися проблеми, юні герої завжди знайдуть вихід. Хоч і не завжди неправильний.


Тривалість: 1 серія: 22:25 (цілком серій: 2)
Якість: SATRemux

Відео: кодек: розмір кадру: 720x576 бітрейт: 1500 кб/с
Аудіо: мова: українська переклад: оригінал кодек: MP2 2.0 бітрейт: 192 кб/с
Аудіо: мова: українська переклад: оригінал кодек: AАС 2.0 бітрейт: 96 кб/с
Перелік серій
01
02
Інформація про файл:
General
Unique ID : 222794140604879157544234451436384136296 (0xA79C9736F7D1513913AF5D124261AC68)
Complete name : G:\Torrents2\FILMS\Чортовийки S01 SAT\Чортовийки.S01E01.SAT.
Format :
Format version : Version 4
File size : 279 MiB
Duration : 22 min 24 s
Overall bit rate : 1 744 kb/s
Encoded date : UTC 2019-01-01 11:30:19
Writing application : v29.0.0 ('Like It Or Not') 64-bit
Writing library : libebml v1.3.6 + v1.4.9

Video
ID : 1
Format : AVC
Format/Info : Advanced Video Codec
Format profile : [email protected]
Format settings : CABAC / 4 Ref Frames
Format settings, CABAC : Yes
Format settings, ReFrames : 4 frames
Codec ID : V_MPEG4/ISO/AVC
Duration : 22 min 24 s
Bit rate : 1 496 kb/s
Width : 720 pixels
Height : 576 pixels
Display aspect ratio : 16:9
Frame rate mode : Constant
Frame rate : 25.000 FPS
Standard : PAL
Color space : YUV
Chroma subsampling : 4:2:0
Bit depth : 8 bits
Scan type : MBAFF
Scan type, store method : Interleaved fields
Scan order : Top Field First
Bits/(Pixel*Frame) : 0.144
Stream size : 240 MiB (86%)
Language : Ukrainian
Default : Yes
Forced : No
Color range : Limited
Color primaries : BT.601 PAL
Transfer characteristics : BT.470 System B/G
Matrix coefficients : BT.470 System B/G

Audio #1
ID : 2
Format : MPEG Audio
Format version : Version 1
Format profile : Layer 2
Format settings : Joint stereo / Intensity Stereo + MS Stereo
Codec ID : A_MPEG/L2
Codec ID/Hint : MP2
Duration : 22 min 24 s
Bit rate mode : Constant
Bit rate : 192 kb/s
Channel(s) : 2 channels
Sampling rate : 48.0 kHz
Frame rate : 41.667 FPS (1152 SPF)
Compression mode : Lossy
Stream size : 30.8 MiB (11%)
Language : Ukrainian
Default : Yes
Forced : No

Audio #2
ID : 3
Format : LC
Format/Info : Advanced Audio Codec Low Complexity
Codec ID : A_AAC-2
Duration : 22 min 24 s
Bit rate : 53.4 kb/s
Channel(s) : 2 channels
Channel layout : L R
Sampling rate : 48.0 kHz
Frame rate : 46.875 FPS (1024 SPF)
Compression mode : Lossy
Stream size : 8.55 MiB (3%)
Language : Ukrainian
Default : No
Forced : No
Скріншоти:



Запис: sergiyko


Фріліч (завантажене не впливає на рейтинг)
 Трекер:    Зареєстрований   

Завантажити / скачати український мультфільм



відео для новачків



 Зареєстрований:   2019-01-01 13:32
 Розмір:   590 MB 
 Оцінка мультсеріалу:   9.8/10 (Голосів: 18)
   
redcit 
VIP


З нами з: 21.12.10
Востаннє: 20.01.19
Повідомлень: 587

2019-01-02 16:17  
Хтось дивився і має свою думку про цей мультсеріал?
hotpopillsbass 
Новенький


З нами з: 16.11.14
Востаннє: 20.01.19
Повідомлень: 4

2019-01-03 16:58  
Смішний мультик. Особливо про ДУПУ. Лесик молодець
sania2011 
Поважний учасник


З нами з: 25.02.11
Востаннє: 18.01.19
Повідомлень: 190

2019-01-03 18:58  
Цитата:
Хтось дивився і має свою думку про цей мультсеріал?

подивився, мені сподобалось. Сміявся більше ніж в сімпсонах до прикладу

Estranded 
VIP


З нами з: 09.02.14
Востаннє: 20.01.19
Повідомлень: 1275

2019-01-07 20:37  
Зараз заціню, відпишуся.

Додано через 28 хвилин 39 секунд:

Перша серія непогана, є смішні моменти. Змальовано всі українські теперішні проблеми. Найбільше насмішив момент з ремонтом доріг і маршруткою.
Єдине, що не сподобалося - анімація, дуже вона якась кострубата.
Подивимось, може далі буде краще.

Ваш часовий пояс: GMT + 2 Години

Нова тема   Відповісти