Джеймс Бонд. Агент 007: Вид на вбивство (James Bond) / A View to a Kill (1985) Remux 1080p 2xUkr/Eng Sub Eng

Нові коментарі

Нова тема   Відповісти
Автор Повідомлення
MakRA 
VIP


З нами з: 11.11.18
Востаннє: 14.08.20
Повідомлень: 1093

2019-01-01 14:27  
Джеймс Бонд. Агент 007: Вид на вбивство / James Bond: A View to a Kill (1985) Remux 1080p 2xUkr/Eng Sub Eng

Джеймс Бонд. Агент 007: Вид на вбивство (James Bond) / A View to a Kill (1985) Remux 1080p 2xUkr/Eng Sub Eng


Жанр: бойовик, екшн, пригодницький, трилер
Країна: США, Велика Британія



Кінокомпанія: EON Productions Ltd., Danjaq
Режисер: Джон Глен [John Glen]
Актори: Роджер Мур [Sir Roger Moore], Крістофер Вокен [Christopher Walken], Таня Робертс, [Tanya Roberts], Лоїс Максвелл [Lois Maxwell], Десмонд Ллевелін [Desmond Wilkinson Llewelyn], Ґрейс Джонс [Beverly Grace Jones], Роберт Браун [Robert Brown], Дольф Лундгрен [Dolph Lundgren], Елісон Дуді [Alison Dood], Меннінг Редвуд [Manning Redwood].

Сюжет:
Чотирнадцятий фільм про англійського суперагента Джеймса Бонда. Екранізація однойменної новели Яна Флемінга.

У стрічці Бонду доводиться боротися з продуктом генетичних випробувань нацистів Максом Зоріним та його помічницею Мей-Дей. Зорін хоче знищити центр науково-технічних досліджень США . Аби виправити ситуацію, Бонду доводиться побувати в СРСР та Франції, а кульмінація стрічки відбувається на мості "Золоті ворота" в Сан-Франциско.

Це останній фільм про Джеймса Бонда, в якому знявся Роджер Мур. Також тут агент спокусив рекордну для бондіани кількість жінок - 4.


Тривалість: 02:11:18
Якість: Remux 1080p
Відео:
кодек:
розмір кадру: 1920 х 1080
бітрейт: 25.3 Mb/s

Аудіо # 1:
мова: українська
переклад: багатоголосий закадровий [1+1]
кодек: 2.0
бітрейт: 192 kb/s

Аудіо # 2:
мова: українська
переклад: багатоголосий закадровий [ICTV]
кодек: 2.0
бітрейт: 192 kb/s

Аудіо # 3:
мова: англійська
переклад: оригінал
кодек: -HD 5.1
бітрейт: 4 315 kb/s

Аудіо # 4:
мова: англійська
переклад: оригінал
кодек: 2.0
бітрейт: 224 kb/s

Аудіо # 5:
мова: англійська
переклад: коментарі
кодек: 2.0
бітрейт: 224 kb/s

Субтитри:
мова: англійська
тип: пререндерні
формат: *.pgs
Info
General
Unique ID : 30296064851850556681758992331232087618 (0x16CACF524C73FEBF9DBC02A098D98E42)
Complete name : E:\! Моя роздача\James Bond A View to a Kill (1985) Remux 1080p 2xUkrEng Sub Eng.
Format :
Format version : Version 4 / Version 2
File size : 27.9 GiB
Duration : 2 h 11 min
Overall bit rate mode : Variable
Overall bit rate : 30.4 Mb/s
Encoded date : UTC 2019-01-01 09:21:33
Writing application : v25.0.0 ('Prog Noir') 64-bit
Writing library : libebml v1.3.6 + v1.4.9

Video
ID : 1
Format : AVC
Format/Info : Advanced Video Codec
Format profile : [email protected]
Format settings, CABAC : Yes
Format settings, RefFrames : 4 frames
Format settings, GOP : M=1, N=12
Codec ID : V_MPEG4/ISO/AVC
Duration : 2 h 11 min
Bit rate mode : Variable
Bit rate : 25.3 Mb/s
Maximum bit rate : 32.0 Mb/s
Width : 1 920 pixels
Height : 1 080 pixels
Display aspect ratio : 16:9
Frame rate mode : Constant
Frame rate : 23.976 (24000/1001) FPS
Color space : YUV
Chroma subsampling : 4:2:0
Bit depth : 8 bits
Scan type : Progressive
Bits/(Pixel*Frame) : 0.508
Stream size : 23.2 GiB (83%)
Title : A View to a Kill (1985) Remux 1080p 2xUkr/Eng Sub Eng
Language : Ukrainian
Default : Yes
Forced : Yes

Audio #1
ID : 2
Format : AC-3
Format/Info : Audio Coding 3
Format settings, Endianness : Big
Codec ID : A_AC3
Duration : 2 h 11 min
Bit rate mode : Constant
Bit rate : 192 kb/s
Channel(s) : 2 channels
Channel positions : Front: L R
Sampling rate : 48.0 kHz
Frame rate : 31.250 FPS (1536 SPF)
Bit depth : 16 bits
Compression mode : Lossy
Stream size : 180 MiB (1%)
Title : MVO [1+1]
Language : Ukrainian
Service kind : Complete Main
Default : Yes
Forced : Yes

Audio #2
ID : 3
Format : AC-3
Format/Info : Audio Coding 3
Format settings, Endianness : Big
Codec ID : A_AC3
Duration : 2 h 11 min
Bit rate mode : Constant
Bit rate : 192 kb/s
Channel(s) : 2 channels
Channel positions : Front: L R
Sampling rate : 48.0 kHz
Frame rate : 31.250 FPS (1536 SPF)
Bit depth : 16 bits
Compression mode : Lossy
Stream size : 180 MiB (1%)
Title : MVO [ICTV]
Language : Ukrainian
Service kind : Complete Main
Default : No
Forced : No

Audio #3
ID : 4
Format :
Format/Info : Digital Theater Systems
Format profile : MA / Core
Mode : 16
Format settings, Endianness : Big
Codec ID : A_DTS
Duration : 2 h 11 min
Bit rate mode : Variable / Constant
Bit rate : 4 315 kb/s / 1 509 kb/s
Channel(s) : 6 channels
Channel positions : Front: L C R, Side: L R, LFE
Sampling rate : 48.0 kHz
Frame rate : 93.750 FPS (512 SPF)
Bit depth : 24 bits
Compression mode : Lossless / Lossy
Stream size : 3.96 GiB (14%)
Title : Original
Language : English
Default : No
Forced : No

Audio #4
ID : 5
Format : AC-3
Format/Info : Audio Coding 3
Format settings, Endianness : Big
Codec ID : A_AC3
Duration : 2 h 11 min
Bit rate mode : Constant
Bit rate : 224 kb/s
Channel(s) : 2 channels
Channel positions : Front: L R
Sampling rate : 48.0 kHz
Frame rate : 31.250 FPS (1536 SPF)
Bit depth : 16 bits
Compression mode : Lossy
Stream size : 210 MiB (1%)
Title : Original
Language : English
Service kind : Complete Main
Default : No
Forced : No

Audio #5
ID : 6
Format : AC-3
Format/Info : Audio Coding 3
Format settings, Endianness : Big
Codec ID : A_AC3
Duration : 2 h 11 min
Bit rate mode : Constant
Bit rate : 224 kb/s
Channel(s) : 2 channels
Channel positions : Front: L R
Sampling rate : 48.0 kHz
Frame rate : 31.250 FPS (1536 SPF)
Bit depth : 16 bits
Compression mode : Lossy
Stream size : 210 MiB (1%)
Title : Original (коментарі)
Language : English
Service kind : Complete Main
Default : No
Forced : No

Text
ID : 7
Format : PGS
Muxing mode : zlib
Codec ID : S_HDMV/PGS
Codec ID/Info : Picture based subtitle format used on BDs/HD-DVDs
Duration : 2 h 5 min
Bit rate : 22.1 kb/s
Count of elements : 1756
Stream size : 20.0 MiB (0%)
Title : Eng
Language : English
Default : No
Forced : No
Скріншоти
Джерело: &
Особиста оцінка: 10 - без зайвих вагань рекомендую всім!



Золотий реліз (завантажене не впливає на рейтинг)
 Трекер:    Зареєстрований   

Завантажити / скачати фільм українською



відео для новачків



 Зареєстрований:   2019-01-01 14:27
 Розмір:   27.89 GB 
 Оцінка фільму:   9.8/10 (Голосів: 9)
   
Ваш часовий пояс: GMT + 2 Години

Нова тема   Відповісти