Рейд Ульзани / Ulzana's Raid (1972) Remux 1080p Ukr/Eng | Sub Ukr/Eng

Нові коментарі

Нова тема   Відповісти
Автор Повідомлення
kryk-v.ya. 
VIP


З нами з: 14.02.14
Востаннє: 26.04.19
Повідомлень: 1136

2019-01-01 13:06  
Рейд Ульзани / Ulzana's Raid (1972) Remux 1080p Ukr/Eng | Sub Ukr/Eng

Рейд Ульзани / Ulzana's Raid (1972) Remux 1080p Ukr/Eng | Sub Ukr/Eng


Жанр: вестерн, пригодницький, бойовик
Країна: США



Кінокомпанія: Universal Pictures, Associates & Aldrich Company, The, De Haven Productions
Режисер: Роберт Олдріч (Robert Aldrich)
Актори: Берт Ланкастер, Брюс Девісон, Хорхе Люк, Річард Джекел, Хоакін Мартінес, Ллойд Бокнер, Карл Свенсон, Даглас Уотсон, Дрен Хемілтон, Джон Пирс, Гледіс Холленд, Маргарет Фейрчайлд, Еймі Еглес, Ричард Булл, Отто Рейчоу.

Сюжет:
Після жорстокого поводження з боку органів влади, Ульзана виходить з індіанської резервації Сан-Карлос з невеликим загоном на шлях війни.Незабаром новина доходить до місцевого воєначальника, який відправляє вершників, щоб попередити місцевих фермерів. Армійський розвідник Макінтош (Ланкастер) отримав завдання знайти Ульзану (Мартінес) з кількома десятками солдатів на чолі з недосвідченим лейтенантом Гарнет Дебуін (Davison). До невеликої кавалерійської колони входить ветеран-сержант (Jaeckel) і розвідник Apache Ke-Ni-Tay (Лука). Ке-Ні-Тей знає Ульзану, оскільки їхні дружини - сестри.


Тривалість: 01:44:16
Якість: Remux 1080p
Відео:
кодек:
розмір кадру: 1920 х 1080
бітрейт: 19.8 Мб/с

Аудіо # 1:
мова: українська
переклад: одноголосий закадровий | Слава Рудік (Радик)
кодек: 2.0
бітрейт: 192 кб/с

Аудіо # 2:
мова: англійська
переклад: оригінал
кодек: -HD MA 2.0
бітрейт: 1573 кб/с

Джерело озвучення:


Субтитри:
мова: українська
тип: програмні (м'які) | Слава Рудік (Радик)
формат: *.srt

Субтитри:
мова: англійська
тип: програмні (м'які)
формат: *.srt

Збережено основні розділи.
Info
General
Unique ID : 236256341074008101816856875750525900593 (0xB1BD50F1576F0DCE764A367A429E1731)
Complete name : D:\LOUD\Ulzana's Raid (1972) Remux 1080p.
Format :
Format version : Version 4 / Version 2
File size : 15.7 GiB
Duration : 1 h 44 min
Overall bit rate mode : Variable
Overall bit rate : 21.6 Mb/s
Encoded date : UTC 2018-12-31 18:26:59
Writing application : v25.0.0 ('Prog Noir') 64-bit
Writing library : libebml v1.3.6 + v1.4.9
Attachments : 0040.jpg

Video
ID : 1
Format : AVC
Format/Info : Advanced Video Codec
Format profile : [email protected]
Format settings : CABAC / 4 Ref Frames
Format settings, CABAC : Yes
Format settings, ReFrames : 4 frames
Codec ID : V_MPEG4/ISO/AVC
Duration : 1 h 44 min
Bit rate mode : Variable
Bit rate : 19.8 Mb/s
Maximum bit rate : 25.0 Mb/s
Width : 1 920 pixels
Height : 1 080 pixels
Display aspect ratio : 16:9
Frame rate mode : Constant
Frame rate : 23.976 (24000/1001) FPS
Standard : NTSC
Color space : YUV
Chroma subsampling : 4:2:0
Bit depth : 8 bits
Scan type : Progressive
Bits/(Pixel*Frame) : 0.398
Stream size : 14.4 GiB (92%)
Title : Ulzanas.Raid.1972.Remux.1080p
Default : Yes
Forced : No
Color range : Limited
Color primaries : BT.709
Transfer characteristics : BT.709
Matrix coefficients : BT.709

Audio #1
ID : 2
Format : AC-3
Format/Info : Audio Coding 3
Commercial name : Dolby Digital
Codec ID : A_AC3
Duration : 1 h 43 min
Bit rate mode : Constant
Bit rate : 192 kb/s
Channel(s) : 2 channels
Channel positions : Front: L R
Sampling rate : 48.0 kHz
Frame rate : 31.250 FPS (1536 SPF)
Bit depth : 16 bits
Compression mode : Lossy
Stream size : 142 MiB (1%)
Title : Радик
Language : Ukrainian
Service kind : Complete Main
Default : Yes
Forced : No

Audio #2
ID : 3
Format :
Format/Info : Digital Theater Systems
Format profile : MA / Core
Codec ID : A_DTS
Duration : 1 h 43 min
Bit rate mode : Variable / Constant
Bit rate : 1 573 kb/s / 1 509 kb/s
Channel(s) : 2 channels
Channel positions : Front: L R
Sampling rate : 48.0 kHz
Frame rate : 93.750 FPS (512 SPF)
Bit depth : 16 bits
Compression mode : Lossless / Lossy
Stream size : 1.13 GiB (7%)
Language : English
Default : No
Forced : No

Text #1
ID : 4
Format : UTF-8
Codec ID : S_TEXT/UTF8
Codec ID/Info : UTF-8 Plain Text
Duration : 1 h 40 min
Bit rate : 61 b/s
Count of elements : 774
Stream size : 45.1 KiB (0%)
Title : Радик
Language : Ukrainian
Default : Yes
Forced : No

Text #2
ID : 5
Format : UTF-8
Codec ID : S_TEXT/UTF8
Codec ID/Info : UTF-8 Plain Text
Duration : 1 h 36 min
Bit rate : 38 b/s
Count of elements : 760
Stream size : 27.3 KiB (0%)
Language : English
Default : No
Forced : No

Menu
00:00:00.000 : en:Chapter 1
00:08:11.366 : en:Chapter 2
00:15:59.959 : en:Chapter 3
00:24:49.113 : en:Chapter 4
00:32:32.701 : en:Chapter 5
00:37:16.317 : en:Chapter 6
00:45:36.525 : en:Chapter 7
00:53:41.844 : en:Chapter 8
01:00:28.583 : en:Chapter 9
01:06:09.716 : en:Chapter 10
01:14:04.857 : en:Chapter 11
01:24:16.969 : en:Chapter 12
Скріншоти





Джерело: &
Особиста оцінка: 10 - без зайвих вагань рекомендую всім!

Велика подяка за озвучення та субтитри пану Радик.


Золотий реліз (завантажене не впливає на рейтинг)
 Трекер:    Зареєстрований   

Завантажити / скачати фільм українською



відео для новачків



 Зареєстрований:   2019-01-01 13:06
 Розмір:   15.7 GB 
 Оцінка фільму:   9.7/10 (Голосів: 6)
   
Інші релізи
+380954897458 
Поважний учасник


З нами з: 02.06.17
Востаннє: 25.04.19
Повідомлень: 222

2019-01-01 15:10  
Дякую, це чудовий драматичний вестерн. Чи можна сподіватися, що колись буде "Земля Чато"? Або якийсь інший фільм Майкла Уіннера: "Законник", "Жага смерті", "Скорпіон"?
kryk-v.ya. 
VIP


З нами з: 14.02.14
Востаннє: 26.04.19
Повідомлень: 1136

2019-01-01 16:15  
+380954897458
сто процентів будуть...я б до вашого списку ще додав "The Missing 2003".

+380954897458 
Поважний учасник


З нами з: 02.06.17
Востаннє: 25.04.19
Повідомлень: 222

2019-01-01 18:10  
kryk-v.ya.
Цей список можна продовжувати до безкінечності :-)))

kryk-v.ya. 
VIP


З нами з: 14.02.14
Востаннє: 26.04.19
Повідомлень: 1136

2019-01-01 18:13  
+380954897458
так, фільмів дуже багато.

VitNi 
Свій


З нами з: 05.05.12
Востаннє: 25.04.19
Повідомлень: 121

2019-02-14 18:56  
а менший розмір?...

в мене комп не тягне більш ніж 4 Гіг... Sad (1)

kryk-v.ya. 
VIP


З нами з: 14.02.14
Востаннє: 26.04.19
Повідомлень: 1136

2019-02-14 19:26  
VitNi написано:
в мене комп не тягне більш ніж 4 Гіг...

такого не може бути...то певно флешка форматована у fat32 тоді так не потягне
...а якщо її форматнути у ntfs...життя заграє новими фарбами... Wide grin

Ваш часовий пояс: GMT + 2 Години

Нова тема   Відповісти