Aftermoon - Phase One (2016) [] | Modern Metal

Нові коментарі

Нова тема   Відповісти
Автор Повідомлення
dark_inwhite 
VIP


З нами з: 15.09.16
Востаннє: 23.07.19
Повідомлень: 362

2019-01-01 12:27  
Aftermoon - Phase One (2016) [] | Modern Metal

Aftermoon - Phase One (2016) [] | Modern Metal


Стиль: Modern Metal
Країна, місто: Україна, Київ
Сайти: Офіційний сайт
Видавець: Wormholedeath Records
Виконавці:
Валері Aftermoon - вокал
Іван Попов - клавішні
Дмитро Лобода - ударні
Роман Коваленко - гітара
Дмитро Пепельнюк - бас-гітара
Пісні:
    01. In Loving Memory
    02. Lumia
    03. Deadborn Revolution
    04. Cold
    05. Losing Me
    06. Runaway
    07. Somewhere
    08. Duality
    09. Daemons
    10. Silence
    11. Time Crisis
    12. To You (Bonus Track)

Тривалість: 00:49:02
Мова: англiйська (1,3-12), українська (2)
Аудіо-кодек:
Бітрейт: 1618 - 1781 кб/с
Джерело: Інтернет
Додаткова інформація:
DRM
foobar2000 1.4 / Dynamic Range Meter 1.1.1
log date: 2019-01-01 10:43:09

--------------------------------------------------------------------------------
Analyzed: Aftermoon / Phase One
--------------------------------------------------------------------------------

DR Peak RMS Duration Track
--------------------------------------------------------------------------------
DR4 -0.01 dB -5.23 dB 4:41 01-In Loving Memory
DR5 -0.01 dB -6.30 dB 4:34 02-Lumia
DR5 -0.06 dB -6.12 dB 3:43 03-Deadborn Revolution
DR5 -0.01 dB -5.93 dB 4:25 04-Cold
DR6 -0.01 dB -8.64 dB 4:10 05-Losing Me
DR5 -0.13 dB -5.78 dB 3:29 06-Runaway
DR4 -0.26 dB -5.23 dB 3:51 07-Somewhere
DR5 -0.01 dB -5.96 dB 4:08 08-Duality
DR5 -0.01 dB -5.39 dB 3:45 09-Daemons
DR5 -0.01 dB -7.37 dB 3:54 10-Silence
DR5 -0.01 dB -5.87 dB 3:40 11-Time Crisis
DR5 -0.26 dB -6.55 dB 4:47 12-To You (Bonus Track)
--------------------------------------------------------------------------------

Number of tracks: 12
Official DR value: DR5

Samplerate: 44100 Hz
Channels: 2
Bits per sample: 24
Bitrate: 1622 kbps
Codec:
================================================================================
Спектри


Якщо Ви справді бажаєте підтримати українське - після прослуховування, якщо музика вам сподобалась, придбайте ліцензійний диск. Підтримаймо вітчизняних виконавців!


Срібний реліз (на рейтинг впливає 50% завантаженого)
 Трекер:    Зареєстрований   

Завантажити / скачати українську музику



відео для новачків



 Зареєстрований:   2019-01-01 12:27
 Розмір:   603 MB 
 Оцінка музики:   10/10 (Голосів: 4)
   
sandman 
VIP


З нами з: 12.08.12
Востаннє: 22.07.19
Повідомлень: 272

2019-03-14 23:46  
Особисто мені, забагато електроніки, як для Metal, хоч він і modern. Взагалі подобається такий стлиь, але це не зайшло
Ваш часовий пояс: GMT + 2 Години

Нова тема   Відповісти