Академічний симфонічний оркестр «INSO-Львів», Генрі Зіґфрідссон - Франц Ксавер Моцарт. Концерти для фортеп'яно з оркестром No 1 і 2. (2004) [] | Classic

Нові коментарі

Нова тема   Відповісти
Автор Повідомлення
romkop 
Частий відвідувач


З нами з: 26.05.09
Востаннє: 18.01.19
Повідомлень: 39

2018-12-31 16:31  
Академічний симфонічний оркестр «INSO-Львів», Генрі Зіґфрідссон - Франц Ксавер Моцарт. Концерти для фортеп'яно з оркестром No 1 і 2. (2004) [] | Classic

Академічний симфонічний оркестр «INSO-Львів», Генрі Зіґфрідссон - Франц Ксавер Моцарт. Концерти для фортеп'яно з оркестром No 1 і 2. (2004) [] | Classic


Стиль: Classic
Країна, місто: Україна, Львів
Сайти: Офіційний сайт
Видавець: Novalis
Виконавці:
Академічний симфонічний оркестр «ІNSO-Львів» (International Symphony Orchestra) заснований 1998 року.


Справжнім «Золотим фондом» оркестру є співпраця з всесвітньо відомими музикантами та диригентами, серед яких: Франсуа Лельо, Ліза Батіашвілі, Вольфганг Емануель Шмідт, Олександр Земцов, Дірк Броссе, Сергій Накаряков, Отто Заутер, Ілля Груберт, Алан Берн, Валерій Соколов, Вадим Неселовський, Лорен Скламберг, Раймонд Янссен, Андрій Бєлов, Леопольд Козловський, Клод Делангль, Фахраддін Керімов, Стівен Дікрен, Анна Скрильова, Ніколас Паск’є, Далія Стасевська, Алессандро Сафіна, Марія Прінц, Філіпп Пєрло та іншими.

Щороку оркестр «INSO-Львів» здійснює гастрольні турне країнами Європи (Швейцарія, Італія, Франція, Австрія, Польща, Німеччина, Португалія, Іспанія). Географія гастрольної діяльності оркестру включає також такі країни, як Колумбія та Китай.

Оркестр «INSO-Львів» неустанно втілює свою творчу, культурно дипломатичну і просвітницьку місію, шукаючи нові шляхи та форми представлення слухачеві класичної музики, сприяючи її популяризації завдяки симбіозу різних видів мистецтв: балет, пісочна анімація, відео супровід тощо.

Сталою традицією є участь оркестру «INSO-Львів» у міжнародних фестивалях, які проводяться у Львові: Міжнародному фестивалі музичного мистецтва «Віртуози», Міжнародному фестивалі сучасної музики «Контрасти», Фестивалі єврейської музики «LvivKlezFest». Колектив вже протягом багатьох років представляє Україну на міжнародних фестивалях та мистецьких проектах у Польщі. В 2016 році оркестр «INSO-Львів» разом із всесвітньо відомим джазовим піаністом та композитором Вадимом Неселовським (США) відкривав 6-й Міжнародний фестиваль ALFA JAZZ FEST у Львові, який, за версією британського видання «The Guardian» увійшов до списку найкращих джазових фестивалів Європи 2016 року.
Пісні:
    Concerto for Piano and Orchestra No.1 Op.14 C-Dur (1811)
    1. Allegro maestoso 11:20
    2. Adagio 7:35
    3. Allegretto (Rondo) 6:28

    Concerto for Piano and Orchestra No.2 Op.25 Es-Dur “Lemberg Concerto” (1818)
    4. Allegro con brio 13:32
    5. Andante espressivo 4:07
    6. Allegretto (Rondo) 7:27

Тривалість: 00:51:00
Мова: відсутня
Аудіо-кодек:
Бітрейт: 524 кб/с
Джерело: internet
log
Exact Audio Copy V0.99 prebeta 4 from 23. January 2008

EAC extraction logfile from 30. April 2010, 18:35

Henri Sigfridsson, Gunhard Mattes / Franz Xaver Mozart - Klavierkonzerte

Used drive : PIONEER DVD-RW DVR-112D Adapter: 0 ID: 0

Read mode : Secure
Utilize accurate stream : Yes
Defeat audio cache : Yes
Make use of C2 pointers : No

Read offset correction : 48
Overread into Lead-In and Lead-Out : No
Fill up missing offset samples with silence : Yes
Delete leading and trailing silent blocks : No
Null samples used in CRC calculations : Yes
Used interface : Native Win32 interface for Win NT & 2000
Gap handling : Appended to previous track

Used output format : User Defined Encoder
Selected bitrate : 768 kBit/s
Quality : High
Add ID3 tag : No
Command line compressor : C:\Program Files\Exact Audio Copy\\.EXE
Additional command line options : -6 -V -T "ARTIST=%a" -T "TITLE=%t" -T "ALBUM=%g" -T "DATE=%y" -T "TRACKNUMBER=%n" -T "GENRE=%m" -T "COMMENT=%e" %s -o %d

TOC of the extracted CD

Track | Start | Length | Start sector | End sector
---------------------------------------------------------
1 | 0:00.00 | 11:26.01 | 0 | 51450
2 | 11:26.01 | 7:36.51 | 51451 | 85701
3 | 19:02.52 | 6:40.22 | 85702 | 115723
4 | 25:42.74 | 13:37.43 | 115724 | 177041
5 | 39:20.42 | 4:08.03 | 177042 | 195644
6 | 43:28.45 | 7:32.23 | 195645 | 229567

Track 1

Filename N:\MOZART, FRANZ XAVER\F.X.Mozart - Piano concertos Nos. 1 & 2\01 - Allegro maestoso C major, op. 14 - Henri Sigfridsson, Gunhard Mattes.wav

Pre-gap length 0:00:02.00

Peak level 98.1 %
Track quality 99.9 %
Copy CRC 7F6E44D6
Accurately ripped (confidence 2) [2D179269]
Copy OK

Track 2

Filename N:\MOZART, FRANZ XAVER\F.X.Mozart - Piano concertos Nos. 1 & 2\02 - Adagio C major, op. 14 - Henri Sigfridsson, Gunhard Mattes.wav

Peak level 70.9 %
Track quality 99.9 %
Copy CRC 9A69C002
Accurately ripped (confidence 2) [649FD43C]
Copy OK

Track 3

Filename N:\MOZART, FRANZ XAVER\F.X.Mozart - Piano concertos Nos. 1 & 2\03 - Allegretto (Rondo) C major, op. 14 - Henri Sigfridsson, Gunhard Mattes.wav

Peak level 98.0 %
Track quality 99.9 %
Copy CRC F9A30BEA
Accurately ripped (confidence 2) [D6BAE4C6]
Copy OK

Track 4

Filename N:\MOZART, FRANZ XAVER\F.X.Mozart - Piano concertos Nos. 1 & 2\04 - Allegro con brio E flat major, op. 25 - Henri Sigfridsson, Gunhard Mattes.wav

Pre-gap length 0:00:08.43

Peak level 98.0 %
Track quality 99.9 %
Copy CRC FAA19784
Accurately ripped (confidence 2) [B594A82A]
Copy OK

Track 5

Filename N:\MOZART, FRANZ XAVER\F.X.Mozart - Piano concertos Nos. 1 & 2\05 - Andante espressivo E flat major, op. 25 - Henri Sigfridsson, Gunhard Mattes.wav

Peak level 77.3 %
Track quality 99.9 %
Copy CRC 021A1648
Accurately ripped (confidence 2) [D12152B4]
Copy OK

Track 6

Filename N:\MOZART, FRANZ XAVER\F.X.Mozart - Piano concertos Nos. 1 & 2\06 - Allegretto (Rondo) E flat major, op. 25 - Henri Sigfridsson, Gunhard Mattes.wav

Peak level 98.0 %
Track quality 99.9 %
Copy CRC 9F7C8008
Accurately ripped (confidence 2) [7F48E732]
Copy OK

All tracks accurately ripped

No errors occurred

End of status report


Фріліч (завантажене не впливає на рейтинг)
 Трекер:    Зареєстрований   

Завантажити / скачати українську музику



відео для новачків



 Зареєстрований:   2018-12-31 16:31
 Розмір:   249 MB 
 Оцінка музики:   10/10 (Голосів: 8)
   
Ваш часовий пояс: GMT + 2 Години

Нова тема   Відповісти