Лепрекон повертається / Leprechaun Returns (2018)

Нові коментарі

Нова тема   Відповісти
Автор Повідомлення
DniproFilm 
VIP


З нами з: 10.10.18
Востаннє: 23.04.19
Повідомлень: 295

2018-12-30 21:25  
Лепрекон повертається / Leprechaun Returns (2018)

Лепрекон повертається / Leprechaun Returns (2018)


Жанр: жахи, фентезі, комедія
Країна: США



Кінокомпанія: Blue Ice Pictures, Out of Africa Entertainment, Syfy
Режисер: Стівен Костанськи
Актори: Тейлор Спрейтлер, Пепі Сонуга, Сай Беннет, Лінден Порко, Марк Голтон, Бен МакГрегор, Леон Клайнгман, Емілі Рейд, Хізер МакДональд та інші

Сюжет:
Лепрекон з'являється у сучасному світі, після того як кілька дівчат із сестринства випадково його будять, коли зносять стару хатину, аби побудувати новий дім для сестринства.


Тривалість: 01:33:25
Якість:

Відео:
кодек:
розмір кадру: 720x400
бітрейт: 1769 кб/с

Аудіо # 1:
мова: українська
переклад: багатоголосий закадровий
кодек: 5.1
бітрейт: 384 кб/с

Джерело озвучення:
DniproFilm
Info

Video
ID : 0
Format : MPEG-4 Visual
Format profile : Advanced [email protected]
Format settings : BVOP2
Format settings, BVOP : 2
Format settings, QPel : No
Format settings, GMC : No warppoints
Format settings, Matrix : Default (H.263)
Muxing mode : Packed bitstream
Codec ID :
Codec ID/Hint :
Duration : 1 h 33 min
Bit rate : 1 769 kb/s
Width : 720 pixels
Height : 400 pixels
Display aspect ratio : 16:9
Frame rate : 23.976 (24000/1001) FPS
Color space : YUV
Chroma subsampling : 4:2:0
Bit depth : 8 bits
Scan type : Progressive
Compression mode : Lossy
Bits/(Pixel*Frame) : 0.256
Stream size : 1.15 GiB (82%)
Writing library : 67

Audio
ID : 1
Format : AC-3
Format/Info : Audio Coding 3
Commercial name : Dolby Digital
Codec ID : 2000
Duration : 1 h 33 min
Bit rate mode : Constant
Bit rate : 384 kb/s
Channel(s) : 6 channels
Channel positions : Front: L C R, Side: L R, LFE
Sampling rate : 48.0 kHz
Frame rate : 31.250 FPS (1536 SPF)
Bit depth : 16 bits
Compression mode : Lossy
Stream size : 257 MiB (18%)
Alignment : Aligned on interleaves
Interleave, duration : 42 ms (1.00 video frame)
Interleave, preload duratio : 512 ms
Service kind : Complete Main
Скріншоти


Увага, присутня відео та аудіореклама.


Джерело: DniproFilm


Авторський реліз (завантажувати можна без реєстрації)
 Трекер:    Зареєстрований   

Завантажити / скачати фільм українською



відео для новачків



 Зареєстрований:   2018-12-30 21:25
 Розмір:   1.41 GB 
 Оцінка фільму:   6.3/10 (Голосів: 18)
   
YaSerg 
Новенький


З нами з: 18.09.11
Востаннє: 22.04.19
Повідомлень: 8

2019-01-02 20:07  
Якщо чесно, то лайно. Перепрошую звичайно, але "фільм" не вартий витраченого часу.
Ваш часовий пояс: GMT + 2 Години

Нова тема   Відповісти