Джеймс Бонд. Агент 007: Тільки для ваших очей / James Bond: For Your Eyes Only (1981) Remux 1080p Ukr/Eng | Sub Ukr/Eng

Нові коментарі

Нова тема   Відповісти
Автор Повідомлення
MakRA 
VIP


З нами з: 11.11.18
Востаннє: 30.09.20
Повідомлень: 1120

2018-12-30 20:47  
Джеймс Бонд. Агент 007: Тільки для ваших очей / James Bond: For Your Eyes Only (1981) Remux 1080p Ukr/Eng | Sub Ukr/Eng

Джеймс Бонд. Агент 007: Тільки для ваших очей / James Bond: For Your Eyes Only (1981) Remux 1080p Ukr/Eng | Sub Ukr/Eng


Жанр: бойовик, пригодницький, трилер
Країна: США, Велика Британія



Кінокомпанія: EON Productions
Режисер: Джон Глен [John Glen]
Актори: Роджер Мур [Sir Roger Moore], Кароль Буке [Carole Bouquet], Лоїс Максвелл [Lois Maxwell], Десмонд Ллевелін [Desmond Llewelyn], Джеймс Віллієрс [James Villiers], Топол [Chaim Topol], Лінн-Голлі Джонсон [Lynn-Holly Johnson], Джуліан Ґловер [Julian Wyatt Glover], Майкл Ґотард [Michael Alan Gothard], Фредерік Ґрей [Frederick Gray], Волтер Ґотелл [Walter Gotell], Єва Рубер-Стейер [Rubber Eva], Джанет Браун [Janet Brown].

Сюжет:
Дванадцятий фільм про англійського суперагента Джеймса Бонда. Екранізація однойменної новели Яна Флемінга.

Надсекретний комп'ютер для управління і запуску балістичних ракет, опинився на дні океану і тепер Джеймсу Бонду, агенту британської розвідки і непереможному мачо належить знайти це обладнання і перешкодити заволодіти ним терористичній організації.
У непростому змаганні Бонду допомагає прекрасна красуня Мілена, яка однаково добре володіє бойовим арбалетом і, що ще небезпечніше, мистецтвом зваблювання.

Цю стрічку часто називають найкращим фільмом бондіани за участі Роджера Мура.


Тривалість: 02:07:59
Якість: Remux 1080p
Відео:
кодек:
розмір кадру: 1920 х 1080
бітрейт: 26,2 Мб/с

Аудіо # 1:
мова: українська
переклад: багатоголосий закадровий [ICTV]
кодек: 5.1
бітрейт: 384 кб/с

Аудіо # 2:
мова: англійська
переклад: оригінал
кодек: -HD MA 5.1
бітрейт: 224 кб/с

Аудіо # 3:
мова: англійська
переклад: оригінал
кодек: 2.0
бітрейт: 224 кб/с

Аудіо # 4:
мова: англійська
переклад: коментарі 1
кодек: 2.0
бітрейт: 224 кб/с

Аудіо # 5:
мова: англійська
переклад: коментарі 2
кодек: 2.0
бітрейт: 224 кб/с

Субтитри # 1:
мова: українська
тип: пререндерні
формат: *.pgs

Субтитри # 2:
мова: англійська
тип: пререндерні
формат: *.pgs
Info
General
Unique ID : 118783664268217489739523967903283967916 (0x595CE6CEB8B55437B14DAB56FB3E77AC)
Complete name : E:\! Моя роздача\James Bond For Your Eyes Only (1981) Remux 1080p UkrEng Sub UkrEng [Hurtom].
Format :
Format version : Version 4 / Version 2
File size : 26.4 GiB
Duration : 2 h 7 min
Overall bit rate mode : Variable
Overall bit rate : 29.5 Mb/s
Encoded date : UTC 2018-12-30 16:43:01
Writing application : v25.0.0 ('Prog Noir') 64-bit
Writing library : libebml v1.3.6 + v1.4.9

Video
ID : 1
Format : AVC
Format/Info : Advanced Video Codec
Format profile : [email protected]
Format settings, CABAC : Yes
Format settings, RefFrames : 4 frames
Codec ID : V_MPEG4/ISO/AVC
Duration : 2 h 7 min
Bit rate mode : Variable
Bit rate : 26.2 Mb/s
Maximum bit rate : 35.0 Mb/s
Width : 1 920 pixels
Height : 1 080 pixels
Display aspect ratio : 16:9
Frame rate mode : Constant
Frame rate : 23.976 (24000/1001) FPS
Color space : YUV
Chroma subsampling : 4:2:0
Bit depth : 8 bits
Scan type : Progressive
Bits/(Pixel*Frame) : 0.527
Stream size : 23.4 GiB (89%)
Title : James Bond: For Your Eyes Only (1981) Remux 1080p Ukr/Eng | Sub Ukr/Eng
Language : Ukrainian
Default : Yes
Forced : Yes
Color range : Limited
Color primaries : BT.709
Transfer characteristics : BT.709
Matrix coefficients : BT.709

Audio #1
ID : 2
Format : AC-3
Format/Info : Audio Coding 3
Format settings, Endianness : Big
Codec ID : A_AC3
Duration : 2 h 7 min
Bit rate mode : Constant
Bit rate : 384 kb/s
Channel(s) : 6 channels
Channel positions : Front: L C R, Side: L R, LFE
Sampling rate : 48.0 kHz
Frame rate : 31.250 FPS (1536 SPF)
Bit depth : 16 bits
Compression mode : Lossy
Stream size : 352 MiB (1%)
Title : MVO [ICTV]
Language : Ukrainian
Service kind : Complete Main
Default : Yes
Forced : Yes

Audio #2
ID : 3
Format :
Format/Info : Digital Theater Systems
Format profile : MA / Core
Mode : 16
Format settings, Endianness : Big
Codec ID : A_DTS
Duration : 2 h 7 min
Bit rate mode : Variable / Constant
Bit rate : 2 262 kb/s / 1 509 kb/s
Channel(s) : 6 channels
Channel positions : Front: L C R, Side: L R, LFE
Sampling rate : 48.0 kHz
Frame rate : 93.750 FPS (512 SPF)
Bit depth : 24 bits
Compression mode : Lossless / Lossy
Stream size : 2.02 GiB (8%)
Title : Original
Language : English
Default : No
Forced : No

Audio #3
ID : 4
Format : AC-3
Format/Info : Audio Coding 3
Format settings, Endianness : Big
Codec ID : A_AC3
Duration : 2 h 7 min
Bit rate mode : Constant
Bit rate : 224 kb/s
Channel(s) : 2 channels
Channel positions : Front: L R
Sampling rate : 48.0 kHz
Frame rate : 31.250 FPS (1536 SPF)
Bit depth : 16 bits
Compression mode : Lossy
Stream size : 205 MiB (1%)
Title : Original
Language : English
Service kind : Complete Main
Default : No
Forced : No

Audio #4
ID : 5
Format : AC-3
Format/Info : Audio Coding 3
Format settings, Endianness : Big
Codec ID : A_AC3
Duration : 2 h 7 min
Bit rate mode : Constant
Bit rate : 224 kb/s
Channel(s) : 2 channels
Channel positions : Front: L R
Sampling rate : 48.0 kHz
Frame rate : 31.250 FPS (1536 SPF)
Bit depth : 16 bits
Compression mode : Lossy
Stream size : 205 MiB (1%)
Title : Original (коментарі)
Language : English
Service kind : Complete Main
Default : No
Forced : No

Audio #5
ID : 6
Format : AC-3
Format/Info : Audio Coding 3
Format settings, Endianness : Big
Codec ID : A_AC3
Duration : 2 h 7 min
Bit rate mode : Constant
Bit rate : 224 kb/s
Channel(s) : 2 channels
Channel positions : Front: L R
Sampling rate : 48.0 kHz
Frame rate : 31.250 FPS (1536 SPF)
Bit depth : 16 bits
Compression mode : Lossy
Stream size : 205 MiB (1%)
Title : Original (коментарі)
Language : English
Service kind : Complete Main
Default : No
Forced : No

Text #1
ID : 7
Format : PGS
Muxing mode : zlib
Codec ID : S_HDMV/PGS
Codec ID/Info : Picture based subtitle format used on BDs/HD-DVDs
Duration : 2 h 4 min
Bit rate : 18.0 kb/s
Count of elements : 1498
Stream size : 16.1 MiB (0%)
Title : Ukr
Language : Ukrainian
Default : Yes
Forced : Yes

Text #2
ID : 8
Format : PGS
Muxing mode : zlib
Codec ID : S_HDMV/PGS
Codec ID/Info : Picture based subtitle format used on BDs/HD-DVDs
Duration : 2 h 4 min
Bit rate : 16.2 kb/s
Count of elements : 1254
Stream size : 14.3 MiB (0%)
Title : Eng
Language : English
Default : No
Forced : No
Скріншоти
Джерело: &
Особиста оцінка: 10 - без зайвих вагань рекомендую всім!



Золотий реліз (завантажене не впливає на рейтинг)
 Трекер:    Зареєстрований   

Завантажити / скачати фільм українською



відео для новачків



 Зареєстрований:   2018-12-30 20:47
 Розмір:   26.41 GB 
 Оцінка фільму:   9.9/10 (Голосів: 8)
   
Ваш часовий пояс: GMT + 2 Години

Нова тема   Відповісти