Карнавальний Фантазм / カーニバル・ファンタズム / Carnival Phantasm (00-12 з 12 + 1S, 2S) (2011) 720p/AVC Ukr/Jap | Sub Ukr

Нові коментарі

Нова тема   Відповісти
Автор Повідомлення
Mitsuruki 
VIP


З нами з: 27.09.17
Востаннє: 23.04.19
Повідомлень: 344

2018-12-30 13:48  
Карнавальний Фантазм / カーニバル・ファンタズム / Carnival Phantasm (00-12 з 12 + 1S, 2S) (2011) 720p/AVC Ukr/Jap | Sub Ukr


Жанр: Комедія, пародія, шьонен, короткі епізоди.
Країна: Японія



Кінокомпанія: Lerche
Режисер: Кіші Сейджі
Ролі озвучують: Май Кадовакі, Мікі Іто, Нобутоші Канна, Аяко Кавасумі, Норіякі Суґіяма, Рюока Юзукі, Кана Уеда, Кенджі Ноджіма, Норіко Шітайя, Ацуко Танака.

Сюжет:
Карнавальний Фантазм - серія коротких історій, які включають пероснажів візуальних новел Fate/Stay Night (Доля. Ніч битви) та Tsukihime (Легенда про місячну принцесу). Історії зазвичай комічні, характери пресонажів дещо гіпертрофовані, деякі їх риси підкреслені чи перебільшені.
Включає кілька спешлів, в тому числі Fate Prototype (Доля. Прототип) - початкові напрацювання, які пізніше стали основою Fate/Stay Night.
Включає Минулий Сезон (Carnival Phantasm: EX Season), який можна дивитися як пролог.


Тривалість: 1 серія: 00:13:12 (цілком серій: 12)
Перелік серій
0. Минулий Сезон.
1. П'ята Велика Битва Магів: Війна за Святий Ґрааль!
2. Бам! Кипляча Кров!
3. Світ Сповнений Фантазій.
4. Бам-Бам. Побачення Супер План.
5. Перше Доручення Берсерка.
6. Type Moon Serial TV Novel: Сакура.
7. Подарунок Майстра.
8. Сейбер на роботі.
9. Гран Прі Святого Ґраалю.
10. "Детектив Промивач Мізків. Лолі Реверсія".
11. Final Dead Lancer.
12. Бам-Бам. Побачення Супер План - Відповідь.
13. S1. Замок Ілії.
14. S2. Доля Прототип.
Якість:
Відео Основний сезон:
кодек:
розмір кадру: 1280x720
бітрейт: ~2 700 кб/с

Відео Минулий сезон:
кодек:
розмір кадру: 720х480
бітрейт: 1 469 кб/с

Аудіо # 1:
мова: українська
переклад: одноголосий закадровий
кодек: 2.0
бітрейт: 281 кб/с

Аудіо # 2:
мова: японська
переклад: оригінал
кодек: 2.0
бітрейт: 320 кб/с

Субтитри:
мова: українська (Повні)
тип: програмні (м'які)
формат: *.

Субтитри:
мова: українська (Написи)
тип: програмні (м'які)
формат: *.
Info Минулий сезон
General
Unique ID : 171870791698395539078292079416893398299 (0x814D1C451FBCA54F7CA3D237187A5D1B)
Complete name : E:\Святилище\Carnival Phantasm [Mitsuruki]\[Mitsuruki] Carnival Phantasm - 00 [720p].
Format :
Format version : Version 4
File size : 295 MiB
Duration : 20 min 18 s
Overall bit rate : 2 031 kb/s
Movie name : Carnival Phantasm DVD - EX Season
Encoded date : UTC 2018-09-25 00:39:45
Writing application : v25.0.0 ('Prog Noir') 64-bit
Writing library : libebml v1.3.6 + v1.4.9
Attachments : A-OTF-MaruFoPro-Medium-CP.ttf / BadMofo.ttf / DFGLeishoW6-Kami.ttf / DFGTFLeisho-W9-Kampfer.ttf / DFPGothW5-Madoka.ttf / DFPHSMaru-W4-CP.ttf / DFPSHT-W5-Madoka.ttf / ElmerFont-En.ttf / FGPGyoshoCC-M-CP2.ttf / FOT-HummingStdEn-B.OTF / HeiseiKakuGoStd-W5-Fate.ttf / HeiseiMaruGoStd-W8-CP.ttf / HeiseiMinchoStd-Gosick.ttf / IgniteTheLight.ttf / IwaMinPro-Md-Kami.ttf / IwaNGoPro-Bd-CP.ttf / IwaNGoPro-Eb-CP.ttf / JAPAB_.TTF / KozGoProH-Madoka.ttf / Northern Territories.ttf / paintbr.ttf / parla.ttf / posthuman.ttf / Profile-Medium.otf / Profile-Regular.otf / Samurai-Gosick.ttf / ThrowMyHandsUpInTheAir-CP.ttf / VD-LogoG-EP-CP.ttf

Video
ID : 1
Format : AVC
Format/Info : Advanced Video Codec
Format profile : High [email protected]
Format settings : CABAC / 11 Ref Frames
Format settings, CABAC : Yes
Format settings, RefFrames : 11 frames
Codec ID : V_MPEG4/ISO/AVC
Duration : 20 min 17 s
Bit rate : 1 469 kb/s
Width : 720 pixels
Height : 480 pixels
Display aspect ratio : 16:9
Frame rate mode : Constant
Frame rate : 23.976 (24000/1001) FPS
Color space : YUV
Chroma subsampling : 4:2:0
Bit depth : 10 bits
Scan type : Progressive
Bits/(Pixel*Frame) : 0.177
Stream size : 213 MiB (72%)
Title : 480p DVD
Writing library : core 119 r2106+636 fcb18f7
Encoding settings : cabac=1 / ref=12 / deblock=1:-1:-1 / analyse=0x3:0x133 / me=umh / subme=10 / psy=1 / fade_compensate=0.95 / psy_rd=0.45:0.10 / mixed_ref=1 / me_range=24 / chroma_me=1 / trellis=2 / 8x8dct=1 / cqm=0 / deadzone=21,11 / fast_pskip=0 / chroma_qp_offset=-3 / threads=6 / sliced_threads=0 / nr=0 / decimate=0 / interlaced=0 / bluray_compat=0 / constrained_intra=0 / fgo=0 / bframes=10 / b_pyramid=1 / b_adapt=2 / b_bias=0 / direct=3 / weightb=1 / open_gop=0 / weightp=2 / keyint=240 / keyint_min=24 / scenecut=40 / intra_refresh=0 / rc_lookahead=120 / rc=crf / mbtree=1 / crf=16.0 / qcomp=0.80 / qpmin=0 / qpmax=81 / qpstep=4 / ip_ratio=1.40 / aq=1:0.90
Language : Japanese
Default : Yes
Forced : No
Color range : Limited
Color primaries : BT.470 System M
Transfer characteristics : BT.470 System M
Matrix coefficients : BT.470 System B/G

Audio #1
ID : 2
Format : LC
Format/Info : Advanced Audio Codec Low Complexity
Codec ID : A_AAC-2
Duration : 20 min 18 s
Bit rate : 276 kb/s
Channel(s) : 2 channels
Channel layout : L R
Sampling rate : 48.0 kHz
Frame rate : 46.875 FPS (1024 SPF)
Compression mode : Lossy
Stream size : 40.1 MiB (14%)
Title : укр
Language : Ukrainian
Default : Yes
Forced : Yes

Audio #2
ID : 4
Format : AC-3
Format/Info : Audio Coding 3
Commercial name : Dolby Digital
Codec ID : A_AC3
Duration : 20 min 17 s
Bit rate mode : Constant
Bit rate : 192 kb/s
Channel(s) : 2 channels
Channel layout : L R
Sampling rate : 48.0 kHz
Frame rate : 31.250 FPS (1536 SPF)
Bit depth : 16 bits
Compression mode : Lossy
Stream size : 27.9 MiB (9%)
Title : 2.0 192Kbps
Language : Japanese
Service kind : Complete Main
Default : No
Forced : No

Text #1
ID : 3
Format :
Codec ID : S_TEXT/
Codec ID/Info : Advanced Sub Station Alpha
Duration : 20 min 13 s
Bit rate : 5 908 b/s
Count of elements : 5942
Compression mode : Lossless
Stream size : 875 KiB (0%)
Title : написи
Language : Ukrainian
Default : Yes
Forced : Yes

Text #2
ID : 5
Format :
Codec ID : S_TEXT/
Codec ID/Info : Advanced Sub Station Alpha
Duration : 20 min 13 s
Bit rate : 6 181 b/s
Count of elements : 5942
Compression mode : Lossless
Stream size : 915 KiB (0%)
Title : повні
Language : Ukrainian
Default : No
Forced : No
Info Основний сезон
General
General
Unique ID : 90912381499458221286464327794839528038 (0x446516790C2064614F6DACED0A982266)
Complete name : E:\Святилище\Carnival Phantasm [Mitsuruki]\[Mitsuruki] Carnival Phantasm - 01 [720p].
Format :
Format version : Version 4
File size : 323 MiB
Duration : 13 min 14 s
Overall bit rate : 3 410 kb/s
Movie name : Carnival Phantasm BD - 01: The 5th Great Clash of the Magicians: The Holy Grail War
Encoded date : UTC 2018-09-25 00:46:10
Writing application : v25.0.0 ('Prog Noir') 64-bit
Writing library : libebml v1.3.6 + v1.4.9
Attachments : DFGCraftSuW9-En.ttf / DFGKB-MadokaTitleS.ttf / DFPHSMaru-W4-CP.ttf / DFPHSMincho9-CP.ttf / edo.ttf / ElmerFont-En.ttf / ERASDUST.TTF / FATTIP.TTF / Feb__.TTF / FLORA.TTF / FOT-HummingStdEn-B.OTF / G-OTF-KKyokaICAStdM-CP.otf / HGPOzawaKST-CP.ttf / IgniteTheLight.ttf / IwaMinPro-Md-Kami.ttf / IwaNGoPro-Lt-CP.ttf / JAPAB.TTF / Northern Territories.ttf / parla.ttf / posthuman.ttf / Profile-Medium.otf / Profile-Regular.otf / SmudgerLet.TTF / APJFK-AnoHana.ttf / arial.ttf / Bolide-Regular.ttf / Bullpen.ttf / Commerce_Black_Condensed_SSi_Bold_Condensed.ttf

Video
ID : 1
Format : AVC
Format/Info : Advanced Video Codec
Format profile : [email protected]
Format settings : CABAC / 8 Ref Frames
Format settings, CABAC : Yes
Format settings, RefFrames : 8 frames
Codec ID : V_MPEG4/ISO/AVC
Duration : 13 min 12 s
Bit rate : 2 647 kb/s
Width : 1 280 pixels
Height : 720 pixels
Display aspect ratio : 16:9
Frame rate mode : Constant
Frame rate : 23.976 (24000/1001) FPS
Color space : YUV
Chroma subsampling : 4:2:0
Bit depth : 8 bits
Scan type : Progressive
Bits/(Pixel*Frame) : 0.120
Stream size : 250 MiB (77%)
Title : 720p BD
Writing library : core 116 r2057 0ba8a9c
Encoding settings : cabac=1 / ref=9 / deblock=1:-1:-1 / analyse=0x3:0x133 / me=umh / subme=11 / psy=1 / psy_rd=0.55:0.20 / mixed_ref=1 / me_range=24 / chroma_me=1 / trellis=2 / 8x8dct=1 / cqm=0 / deadzone=21,11 / fast_pskip=0 / chroma_qp_offset=-3 / threads=6 / sliced_threads=0 / nr=0 / decimate=0 / interlaced=0 / bluray_compat=0 / constrained_intra=0 / bframes=9 / b_pyramid=1 / b_adapt=2 / b_bias=0 / direct=3 / weightb=1 / open_gop=0 / weightp=2 / keyint=240 / keyint_min=24 / scenecut=50 / intra_refresh=0 / rc_lookahead=160 / rc=crf / mbtree=1 / crf=15.5 / qcomp=0.70 / qpmin=0 / qpmax=69 / qpstep=4 / ip_ratio=1.40 / aq=2:1.25
Language : Japanese
Default : Yes
Forced : No
Color range : Limited
Color primaries : BT.709
Transfer characteristics : BT.709
Matrix coefficients : BT.709

Audio #1
ID : 2
Format : LC
Format/Info : Advanced Audio Codec Low Complexity
Codec ID : A_AAC-2
Duration : 13 min 14 s
Bit rate : 281 kb/s
Channel(s) : 2 channels
Channel layout : L R
Sampling rate : 48.0 kHz
Frame rate : 46.875 FPS (1024 SPF)
Compression mode : Lossy
Stream size : 26.7 MiB (8%)
Title : ua
Language : Ukrainian
Default : Yes
Forced : Yes

Audio #2
ID : 4
Format : AC-3
Format/Info : Audio Coding 3
Commercial name : Dolby Digital
Codec ID : A_AC3
Duration : 13 min 12 s
Bit rate mode : Constant
Bit rate : 320 kb/s
Channel(s) : 2 channels
Channel layout : L R
Sampling rate : 48.0 kHz
Frame rate : 31.250 FPS (1536 SPF)
Bit depth : 16 bits
Compression mode : Lossy
Stream size : 30.2 MiB (9%)
Title : 2.0 320Kbps
Language : Japanese
Service kind : Complete Main
Default : No
Forced : No

Text #1
ID : 3
Format :
Codec ID : S_TEXT/
Codec ID/Info : Advanced Sub Station Alpha
Duration : 12 min 53 s
Bit rate : 1 061 b/s
Count of elements : 858
Compression mode : Lossless
Stream size : 100 KiB (0%)
Title : написи
Language : Ukrainian
Default : Yes
Forced : Yes

Text #2
ID : 5
Format :
Codec ID : S_TEXT/
Codec ID/Info : Advanced Sub Station Alpha
Duration : 12 min 53 s
Bit rate : 1 149 b/s
Count of elements : 858
Compression mode : Lossless
Stream size : 109 KiB (0%)
Title : повні
Language : Ukrainian
Default : No
Forced : No
Скріншоти
Серія 00


Серія 01 і далі


Переклад: Akoman UA
Озвучення: Rainy984

Особиста оцінка: 10 - без зайвих вагань рекомендую всім!


Авторський реліз (завантажувати можна без реєстрації)
 Трекер:    Зареєстрований   

Завантажити / скачати аніме українською



відео для новачків



 Зареєстрований:   2019-04-12 22:01
 Розмір:   5.24 GB 
 Оцінка аніме:   10/10 (Голосів: 4)
   
EvGaS 
Попереджень: 1
Попереджень: 1 


З нами з: 27.02.12
Востаннє: 23.04.19
Повідомлень: 5677

2018-12-30 16:53  
Чомусь не бачу ані постеру, ані світлин.

Цитата:
Complete name : E:\Святилище\Carnival Phantasm

Весела мабуть секта… ;-)

По самому аніме: це, здається, пародія на всесвіт Fate, з дитячими чи дрібними персонажами. Чисто для фанів, випадковому глядачеві воно буде не надто зрозумілим.

Мені свого часу не дуже сподобалось, але цікавий вибір для певної аудиторії, молодці за старання.

11FrYkT 
Модератор відео


З нами з: 20.02.11
Востаннє: 23.04.19
Повідомлень: 5809

2019-01-01 12:20  
Mitsuruki , додайте скріншоти 2 версій відео
Mitsuruki 
VIP


З нами з: 27.09.17
Востаннє: 23.04.19
Повідомлень: 344

2019-03-01 16:21  
Додано 13 серію (1 Special)!
Mitsuruki 
VIP


З нами з: 27.09.17
Востаннє: 23.04.19
Повідомлень: 344

2019-04-12 22:01  
Додано 14 серію (2sp)!
Ваш часовий пояс: GMT + 2 Години

Нова тема   Відповісти