Синоптик / The Weather Man (2005) 720p 2xUkr/Eng│Sub Eng

Нові коментарі

Нова тема   Відповісти
Автор Повідомлення
Anonymous 







2018-12-30 07:11  
Синоптик / The Weather Man (2005) 720p 2xUkr/Eng│Sub Eng

Синоптик / The Weather Man (2005) 720p 2xUkr/Eng│Sub Eng


Жанр: драма, комедія
Країна: США, Німеччина



Кінокомпанія: Paramount Pictures, Escape Artists
Режисер: Гор Вербінськи
Актори: Ніколас Кейдж, Майкл Кейн, Хоуп Девіс, Джемені де ла Пенья, Ніколас Холт, Майкл Рісполі, Джил Беллоуз, Джудіт МакКоннелл та інші

Сюжет:
Сумна історія Дейва Спрітса, що всіма силами намагається протистояти життєвим негараздам. На роботі наче все добре,він популярний ведучий прогнозу погоди, і навіть отримує запрошення до популярного телешоу у Нью-Йорку, а це і слава і гроші. Та з особистим життям не склалось,з дружиною розвівся, батько смертельно хворий. Дейв з усієї сили намагається тримати ситуацію під контролем, але починає розуміти - життя так само непередбачуване, як і погода.


Тривалість: 01:44:41
Якість:
Відео:
кодек:
розмір кадру: 1280 х 720
бітрейт: 4929 кб/с

Аудіо # 1:

мова: українська
переклад: багатоголосий закадровий
кодек: 2.0
бітрейт: 192 кб/с

Аудіо # 2: (присутній ефект "піанно")
мова: українська
переклад: багатоголосий закадровий
кодек: 5.1
бітрейт: 448 кб/с

Аудіо # 3:
мова: англійська
переклад: оригінал
кодек: 5.1
бітрейт: 384 кб/с

Субтитри:
мова: англійська
тип: програмні (м'які)
формат: *.srt
Info
General
Unique ID : 319490783818199382987326143162310541692 (0xF05BAFCEEBE91B909BCA9A462FBD417C)
Complete name : E:\films\The Weather Man (2005) 720p [2xUkr.Eng] [Hurtom].
Format :
Format version : Version 4 / Version 2
File size : 4.23 GiB
Duration : 1 h 41 min
Overall bit rate : 5 956 kb/s
Encoded date : UTC 2018-12-25 20:16:58
Writing application : v21.0.0 ('Tardigrades Will Inherit The Earth') 64-bit
Writing library : libebml v1.3.5 + v1.4.8

Video
ID : 1
Format : AVC
Format/Info : Advanced Video Codec
Format profile : [email protected]
Format settings, CABAC : Yes
Format settings, ReFrames : 4 frames
Codec ID : V_MPEG4/ISO/AVC
Duration : 1 h 41 min
Bit rate : 4 929 kb/s
Width : 1 280 pixels
Height : 720 pixels
Display aspect ratio : 16:9
Frame rate mode : Constant
Frame rate : 23.976 (24000/1001) FPS
Color space : YUV
Chroma subsampling : 4:2:0
Bit depth : 8 bits
Scan type : Progressive
Bits/(Pixel*Frame) : 0.223
Stream size : 3.50 GiB (83%)
Writing library : core 155 r2901 7d0ff22
Encoding settings : cabac=1 / ref=3 / deblock=1:1:0 / analyse=0x3:0x113 / me=hex / subme=7 / psy=1 / psy_rd=1.00:0.00 / mixed_ref=1 / me_range=16 / chroma_me=1 / trellis=1 / 8x8dct=1 / cqm=0 / deadzone=21,11 / fast_pskip=1 / chroma_qp_offset=0 / threads=12 / lookahead_threads=2 / sliced_threads=0 / nr=0 / decimate=1 / interlaced=0 / bluray_compat=0 / constrained_intra=0 / bframes=3 / b_pyramid=2 / b_adapt=1 / b_bias=0 / direct=1 / weightb=1 / open_gop=0 / weightp=2 / keyint=240 / keyint_min=23 / scenecut=40 / intra_refresh=0 / rc_lookahead=40 / rc=crf / mbtree=1 / crf=18.0 / qcomp=0.60 / qpmin=0 / qpmax=69 / qpstep=4 / vbv_maxrate=62500 / vbv_bufsize=78125 / crf_max=0.0 / nal_hrd=none / filler=0 / ip_ratio=1.40 / aq=1:1.00
Default : Yes
Forced : No

Audio #1
ID : 2
Format : AC-3
Format/Info : Audio Coding 3
Mode extension : CM (complete main)
Format settings, Endianness : Big
Codec ID : A_AC3
Duration : 1 h 41 min
Bit rate mode : Constant
Bit rate : 192 kb/s
Channel(s) : 2 channels
Channel positions : Front: L R
Sampling rate : 48.0 kHz
Frame rate : 31.250 FPS (1536 spf)
Bit depth : 16 bits
Compression mode : Lossy
Stream size : 140 MiB (3%)
Title : Inter channel
Language : Ukrainian
Default : Yes
Forced : No

Audio #2
ID : 3
Format : AC-3
Format/Info : Audio Coding 3
Mode extension : CM (complete main)
Format settings, Endianness : Big
Codec ID : A_AC3
Duration : 1 h 41 min
Bit rate mode : Constant
Bit rate : 448 kb/s
Channel(s) : 6 channels
Channel positions : Front: L C R, Side: L R, LFE
Sampling rate : 48.0 kHz
Frame rate : 31.250 FPS (1536 spf)
Bit depth : 16 bits
Compression mode : Lossy
Stream size : 326 MiB (8%)
Title : NOVY channel
Language : Ukrainian
Default : No
Forced : No

Audio #3
ID : 4
Format : AC-3
Format/Info : Audio Coding 3
Mode extension : CM (complete main)
Format settings, Endianness : Big
Codec ID : A_AC3
Duration : 1 h 41 min
Bit rate mode : Constant
Bit rate : 384 kb/s
Channel(s) : 6 channels
Channel positions : Front: L C R, Side: L R, LFE
Sampling rate : 48.0 kHz
Frame rate : 31.250 FPS (1536 spf)
Bit depth : 16 bits
Compression mode : Lossy
Stream size : 279 MiB (6%)
Title : Original
Language : English
Default : No
Forced : No

Text
ID : 5
Format : UTF-8
Codec ID : S_TEXT/UTF8
Codec ID/Info : UTF-8 Plain Text
Duration : 1 h 35 min
Bit rate : 55 b/s
Count of elements : 1642
Stream size : 38.7 KiB (0%)
Language : English
Default : Yes
Forced : No
Скріншоти






Подяка Hanway та dilnix за україномовну звукову доріжку від , та realnitro за українізований постер.

Джерело:


 Трекер:    Зареєстрований   

Завантажити / скачати фільм українською



відео для новачків



 Зареєстрований:   2018-12-30 07:11
 Розмір:   4.23 GB 
 Оцінка фільму:   9.6/10 (Голосів: 5)
   
Інші релізи
   Синоптик / The Weather Man (2005) AVC 2xUkr/Eng │ Sub Eng FAELIT  5 / 0   1.85 GB   2019-02-22 18:03 
   Синоптик / The Weather Man (2005) 1080p Ukr/Eng │ Sub Eng Electroz  5 / 0   10.26 GB   2016-12-26 23:02 
   Синоптик / The Weather Man (2005) Ukr/Eng Givi  2 / 1   1.75 GB   2009-01-09 20:23 
uaxpasha 
VIP


З нами з: 05.08.12
Востаннє: 18.11.19
Повідомлень: 268

2019-01-02 21:28  
Anonymous написано:
(присутній ефект "піанно")

Що це таке? в гуглі нічого не видає

igor911 
Модератор відео


З нами з: 18.01.08
Востаннє: 18.11.19
Повідомлень: 13663

2019-01-03 18:07  
uaxpasha написано:
Що це таке?

дефект в псевдо-5.1 доріжках, отриманих заміною центрального каналу записом з ТБ, що має іншу тональність, ніж оригінал. Особливо відчутний на музичних сценах.

Ваш часовий пояс: GMT + 2 Години

Нова тема   Відповісти