Джеймс Бонд. Агент 007: Корабель "Місячний гонщик" / James Bond: Moonraker (1979) Remux 1080p 2xUkr/Eng | Sub Eng

Нові коментарі

Нова тема   Відповісти
Автор Повідомлення
MakRA 
Поважний учасник


З нами з: 11.11.18
Востаннє: 22.05.19
Повідомлень: 198

2018-12-30 03:02  
Джеймс Бонд. Агент 007: Корабель "Місячний гонщик" / James Bond: Moonraker (1979) Remux 1080p 2хUkr/Eng | Sub Eng

Джеймс Бонд. Агент 007: Корабель "Місячний гонщик" / James Bond: Moonraker (1979) Remux 1080p 2xUkr/Eng | Sub Eng


Жанр: бойовик, пригодницький, трилер
Країна: Велика Британія, Франція



Кінокомпанія: Eon Productions, United Artists
Режисер: Льюїс Гілберт [Lewis Gilber]
Актори: Роджер Мур [Sir Roger Moore], Корінн Клері [Corinne Cléry], Бернард Лі [Bernard Lee], Лоїс Максвелл [Lois Maxwell], Майкл Лонсдейл [Michael Lonsdal], Лоїс Чайлс [Lois Chiles], Річард Кіл [Richard Dawson Kiel], Бланш Равалек [Blanche Ravalec], Емілі Болтон [Emily Bolton].

Сюжет:
Одинадцятий фільм про англійського суперагента Джеймса Бонда. Екранізація однойменного роману Яна Флемінга.

Події фільму починаються з викрадення під час транспортування космічного шатлу "Місячний Гонщик". Як наслідок, літак падає, шатл зникає, а у Джеймса Бонда з'являється нове завдання. Агент 007 з'ясовує, що божевільний американський мільярдер має на меті знищити всіх людей на планеті та згодом населити її надлюдьми, яких виростить на своїй космічній станції. Бонд знешкоджує хімічну зброю злочинця та вкотре рятує світ.

Бюджет картини перевищив загальний перших шести частин "бондіани", а сам фільм і донині є рекордсменом по кількості персонажів, задіяних у сцені з невагомістю.


Тривалість: 02:06:29
Якість: Remux 1080p

Відео:
кодек:
розмір кадру: 1920 х 1080
бітрейт: 22 Мб/с

Аудіо # 1:
мова: українська
переклад: багатоголосий закадровий [1+1]
кодек: 2.0
бітрейт: 192 кб/с

Аудіо # 2:
мова: українська
переклад: багатоголосий закадровий [ICTV]
кодек: 2.0
бітрейт: 192 кб/с

Аудіо # 3:
мова: англійська
переклад: оригінал
кодек: -HD MA 5.1
бітрейт: 3018 кб/с

Аудіо # 4:
мова: англійська
переклад: оригінал
кодек: 2.0
бітрейт: 224 кб/с

Аудіо # 5:
мова: англійська
переклад: коментарі
кодек: 2.0
бітрейт: 224 кб/с

Субтитри # 1:
мова: англійська
тип: пререндерні
формат: *.pgs
Info
General
Unique ID : 49086331879137771287718464218835219156 (0x24EDAF0333D66444B17D4F55297C72D4)
Complete name : E:\! Моя роздача\James Bond Moonraker (1979) Remux 1080p 2хUkrEng Sub Eng.
Format :
Format version : Version 4 / Version 2
File size : 22.9 GiB
Duration : 2 h 6 min
Overall bit rate mode : Variable
Overall bit rate : 25.9 Mb/s
Encoded date : UTC 2018-12-29 22:50:27
Writing application : v25.0.0 ('Prog Noir') 64-bit
Writing library : libebml v1.3.6 + v1.4.9

Video
ID : 1
Format : AVC
Format/Info : Advanced Video Codec
Format profile : [email protected]
Format settings, CABAC : Yes
Format settings, RefFrames : 4 frames
Codec ID : V_MPEG4/ISO/AVC
Duration : 2 h 6 min
Bit rate mode : Variable
Bit rate : 22.0 Mb/s
Maximum bit rate : 35.0 Mb/s
Width : 1 920 pixels
Height : 1 080 pixels
Display aspect ratio : 16:9
Frame rate mode : Constant
Frame rate : 23.976 (24000/1001) FPS
Color space : YUV
Chroma subsampling : 4:2:0
Bit depth : 8 bits
Scan type : Progressive
Bits/(Pixel*Frame) : 0.443
Stream size : 19.4 GiB (85%)
Title : James Bond: Moonraker (1979) Remux 1080p 2хUkr/Eng | Sub Eng
Language : Ukrainian
Default : Yes
Forced : Yes
Color range : Limited
Color primaries : BT.709
Transfer characteristics : BT.709
Matrix coefficients : BT.709

Audio #1
ID : 2
Format : AC-3
Format/Info : Audio Coding 3
Format settings, Endianness : Big
Codec ID : A_AC3
Duration : 2 h 6 min
Bit rate mode : Constant
Bit rate : 192 kb/s
Channel(s) : 2 channels
Channel positions : Front: L R
Sampling rate : 48.0 kHz
Frame rate : 31.250 FPS (1536 SPF)
Bit depth : 16 bits
Compression mode : Lossy
Stream size : 174 MiB (1%)
Title : MVO [1+1]
Language : Ukrainian
Service kind : Complete Main
Default : Yes
Forced : Yes

Audio #2
ID : 3
Format : AC-3
Format/Info : Audio Coding 3
Format settings, Endianness : Big
Codec ID : A_AC3
Duration : 2 h 6 min
Bit rate mode : Constant
Bit rate : 192 kb/s
Channel(s) : 2 channels
Channel positions : Front: L R
Sampling rate : 48.0 kHz
Frame rate : 31.250 FPS (1536 SPF)
Bit depth : 16 bits
Compression mode : Lossy
Stream size : 174 MiB (1%)
Title : MVO [ICTV]
Language : Ukrainian
Service kind : Complete Main
Default : No
Forced : No

Audio #3
ID : 4
Format :
Format/Info : Digital Theater Systems
Format profile : HRA / Core
Mode : 16
Format settings, Endianness : Big
Codec ID : A_DTS
Duration : 2 h 6 min
Bit rate mode : Constant
Bit rate : 3 018 kb/s / 1 509 kb/s
Channel(s) : 6 channels
Channel positions : Front: L C R, Side: L R, LFE
Sampling rate : 48.0 kHz
Frame rate : 93.750 FPS (512 SPF)
Bit depth : 24 bits
Compression mode : Lossy
Stream size : 2.67 GiB (12%)
Title : Original
Language : English
Default : No
Forced : No

Audio #4
ID : 5
Format : AC-3
Format/Info : Audio Coding 3
Format settings, Endianness : Big
Codec ID : A_AC3
Duration : 2 h 6 min
Bit rate mode : Constant
Bit rate : 224 kb/s
Channel(s) : 2 channels
Channel positions : Front: L R
Sampling rate : 48.0 kHz
Frame rate : 31.250 FPS (1536 SPF)
Bit depth : 16 bits
Compression mode : Lossy
Stream size : 203 MiB (1%)
Title : Original
Language : English
Service kind : Complete Main
Default : No
Forced : No

Audio #5
ID : 6
Format : AC-3
Format/Info : Audio Coding 3
Format settings, Endianness : Big
Codec ID : A_AC3
Duration : 2 h 6 min
Bit rate mode : Constant
Bit rate : 224 kb/s
Channel(s) : 2 channels
Channel positions : Front: L R
Sampling rate : 48.0 kHz
Frame rate : 31.250 FPS (1536 SPF)
Bit depth : 16 bits
Compression mode : Lossy
Stream size : 203 MiB (1%)
Title : Original (коментарі)
Language : English
Service kind : Complete Main
Default : No
Forced : No

Text
ID : 7
Format : PGS
Muxing mode : zlib
Codec ID : S_HDMV/PGS
Codec ID/Info : Picture based subtitle format used on BDs/HD-DVDs
Duration : 2 h 2 min
Bit rate : 19.6 kb/s
Count of elements : 1388
Stream size : 17.3 MiB (0%)
Title : Eng
Language : English
Default : No
Forced : No
Скріншоти
Джерело: &
Особиста оцінка: 10 - без зайвих вагань рекомендую всім!



Золотий реліз (завантажене не впливає на рейтинг)
 Трекер:    Зареєстрований   

Завантажити / скачати фільм українською



відео для новачків



 Зареєстрований:   2018-12-30 03:02
 Розмір:   22.86 GB 
 Оцінка фільму:   10/10 (Голосів: 4)
   
Ваш часовий пояс: GMT + 2 Години

Нова тема   Відповісти