Це дуже забавна історія / Це частково кумедна історія / It's Kind of a Funny Story (2010) 1080p Ukr/Eng | Sub Ukr/Eng

Нові коментарі

Нова тема   Відповісти
Автор Повідомлення
staf777 
Відео Гуртом - підтримка та поширення
Відео Гуртом - підтримка та поширення


З нами з: 16.11.16
Востаннє: 26.09.20
Повідомлень: 4047

2018-12-29 20:34  
Це дуже забавна історія / Це частково кумедна історія / It's Kind of a Funny Story (2010) 1080p Ukr/Eng | Sub Ukr/Eng

Це дуже забавна історія / Це частково кумедна історія / It's Kind of a Funny Story (2010) 1080p Ukr/Eng | Sub Ukr/Eng


Жанр: комедія, драма, романтичний
Країна: США



Кінокомпанія: Focus Features, Wayfare Entertainment, Misher Films
Режисер: Анна Боден / Anna Boden і Раян Флек / Ryan Fleck
Актори: Кейр Ґілкріст / Keir Gilchrist, Емма Робертс / Emma Roberts, Зак Ґаліфіанакіс / Zach Galifianakis, Віола Девіс / Viola Davis, Лорен Ґрем / Lauren Graham, Джим Ґеффіґан / Jim Gaffigan, Зої Кравіц / Zoe Kravitz, Дана ДеВестерн / Dana DeVestern, Карен Чілтон / Karen Chilton, Аасіф Мандві / Aasif Mandvi

Сюжет:
У Крейґа важкі часи: йому 16, а світ навколо стрімко рухається у невідомому напрямку. Крейґа переслідують думки про самогубство і він вирішує звернутися за допомогою. Його кладуть до психіатричного відділення й він там знаходить друзів. Допомагаючи їм вирішити їхні проблеми, він розуміє у чому є сенс життя.
ЖИВІТЬ.


Тривалість: 01:41:10
Якість:
Відео:
кодек:
розмір кадру: 1920x1032
бітрейт: 12.0 Мб/с

Аудіо # 1:
мова: українська
переклад: багатоголосий закадровий
кодек: 2.0
бітрейт: 192 кб/с

Аудіо # 2:
мова: англійська
переклад: оригінал
кодек: 5.1
бітрейт: 1509 кб/с

Джерело озвучення:


Субтитри:
мова: українська
тип: програмні (м'які)
формат: *.srt

Субтитри:
мова: англійська
тип: програмні (м'які)
формат: *.srt
MI
General
Unique ID : 185701736385610038950229606983808857000 (0x8BB4DA7DDC39C78DA5A2ECA096B833A8)
Complete name : F:\» HD українською » Фільми в HD\Комедія\It's Kind of a Funny Story (2010) 1080p [UKR][ENG][Hurtom].
Format :
Format version : Version 4 / Version 2
File size : 9.68 GiB
Duration : 1 h 41 min
Overall bit rate : 13.7 Mb/s
Movie name : It's Kind of a Funny Story (2010) 1080p [UKR][ENG][Hurtom]
Encoded date : UTC 2018-12-30 08:22:14
Writing application : v24.0.0 ('Beyond The Pale') 64-bit
Writing library : libebml v1.3.6 + v1.4.9
Cover : Yes
Attachments : cover.jpg

Video
ID : 1
Format : AVC
Format/Info : Advanced Video Codec
Format profile : [email protected]
Format settings : CABAC / 4 Ref Frames
Format settings, CABAC : Yes
Format settings, ReFrames : 4 frames
Codec ID : V_MPEG4/ISO/AVC
Duration : 1 h 41 min
Bit rate : 12.0 Mb/s
Width : 1 920 pixels
Height : 1 032 pixels
Display aspect ratio : 1.85:1
Frame rate mode : Constant
Frame rate : 23.976 (24000/1001) FPS
Color space : YUV
Chroma subsampling : 4:2:0
Bit depth : 8 bits
Scan type : Progressive
Bits/(Pixel*Frame) : 0.253
Stream size : 8.48 GiB (88%)
Title : Release for HDCLUB
Writing library : core 92 r1510 33d382a
Encoding settings : cabac=1 / ref=4 / deblock=1:-3:-3 / analyse=0x3:0x133 / me=umh / subme=10 / psy=1 / psy_rd=1.00:0.10 / mixed_ref=1 / me_range=48 / chroma_me=1 / trellis=2 / 8x8dct=1 / cqm=0 / deadzone=21,11 / fast_pskip=0 / chroma_qp_offset=-3 / threads=12 / sliced_threads=0 / nr=0 / decimate=1 / interlaced=0 / constrained_intra=0 / bframes=3 / b_pyramid=2 / b_adapt=2 / b_bias=0 / direct=3 / wpredb=1 / wpredp=2 / keyint=250 / keyint_min=25 / scenecut=40 / intra_refresh=0 / rc_lookahead=50 / rc=2pass / mbtree=1 / bitrate=12000 / ratetol=1.0 / qcomp=0.60 / qpmin=10 / qpmax=51 / qpstep=4 / cplxblur=20.0 / qblur=0.5 / ip_ratio=1.40 / aq=1:1.00
Language : English
Default : No
Forced : No

Audio #1
ID : 2
Format : AC-3
Format/Info : Audio Coding 3
Codec ID : A_AC3
Duration : 1 h 41 min
Bit rate mode : Constant
Bit rate : 192 kb/s
Channel(s) : 2 channels
Channel positions : Front: L R
Sampling rate : 48.0 kHz
Frame rate : 31.250 FPS (1536 SPF)
Bit depth : 16 bits
Compression mode : Lossy
Stream size : 139 MiB (1%)
Title : [Ukr-Mvo-NLO]
Language : Ukrainian
Service kind : Complete Main
Default : Yes
Forced : Yes

Audio #2
ID : 3
Format :
Format/Info : Digital Theater Systems
Codec ID : A_DTS
Duration : 1 h 41 min
Bit rate mode : Constant
Bit rate : 1 509 kb/s
Channel(s) : 6 channels
Channel positions : Front: L C R, Side: L R, LFE
Sampling rate : 48.0 kHz
Frame rate : 93.750 FPS (512 SPF)
Bit depth : 24 bits
Compression mode : Lossy
Delay relative to video : 11 ms
Stream size : 1.07 GiB (11%)
Title : 5.1 @ 1536 kbps
Language : English
Default : No
Forced : No

Text #1
ID : 4
Format : UTF-8
Codec ID : S_TEXT/UTF8
Codec ID/Info : UTF-8 Plain Text
Duration : 1 h 34 min
Bit rate : 112 b/s
Count of elements : 1403
Stream size : 78.3 KiB (0%)
Language : Ukrainian
Default : No
Forced : No

Text #2
ID : 5
Format : UTF-8
Codec ID : S_TEXT/UTF8
Codec ID/Info : UTF-8 Plain Text
Duration : 1 h 34 min
Bit rate : 72 b/s
Count of elements : 1520
Stream size : 50.3 KiB (0%)
Language : English
Default : No
Forced : No

Menu
00:00:00.000 : en:00:00:00.000
00:02:51.546 : en:00:02:51.546
00:08:00.939 : en:00:08:00.939
00:12:53.564 : en:00:12:53.564
00:17:00.519 : en:00:17:00.519
00:22:46.615 : en:00:22:46.615
00:28:57.235 : en:00:28:57.235
00:35:44.059 : en:00:35:44.059
00:39:25.947 : en:00:39:25.947
00:43:10.546 : en:00:43:10.546
00:46:15.356 : en:00:46:15.356
00:52:51.251 : en:00:52:51.251
00:56:39.229 : en:00:56:39.229
01:02:18.360 : en:01:02:18.360
01:09:45.890 : en:01:09:45.890
01:15:54.049 : en:01:15:54.049
01:20:13.142 : en:01:20:13.142
01:26:45.867 : en:01:26:45.867
01:33:02.702 : en:01:33:02.702
01:35:09.579 : en:01:35:09.579





Подяка п. POMEO за сирий звук, п. SergoMozaic за відредаговані субтитри, п. karvai0 за доріжку та п. Gelios за українізований постер.
Джерело: &
Особиста оцінка: 0 - не дивився
ЗАЛИШАЙТЕСЬ ЯКОМОГА ДОВШЕ НА РОЗДАЧІ!

СКАЧАВ САМ - ДАЙ СКАЧАТИ ІНШИМ



 Трекер:    Зареєстрований   

Завантажити / скачати фільм українською



відео для новачків



 Зареєстрований:   2018-12-30 12:39
 Розмір:   9.68 GB 
 Оцінка фільму:   8.9/10 (Голосів: 15)
   
bot 
робот


З нами з: 30.09.07
Востаннє: 26.05.05
Повідомлень: 25610

2018-12-29 20:38  
Тему перенесено з Фільми до форуму Анонси релізів


staf777

bot 
робот


З нами з: 30.09.07
Востаннє: 26.05.05
Повідомлень: 25610

2018-12-30 12:38  
Тему перенесено з Анонси релізів до форуму Фільми в HD


staf777

pah 
Свій


З нами з: 09.11.12
Востаннє: 24.09.20
Повідомлень: 61

2020-03-27 20:12  
Роздайте, будь ласка, друзі!
Ваш часовий пояс: GMT + 2 Години

Нова тема   Відповісти