Вірус мертвих / Virus of the Dead (2018)

Нові коментарі

Нова тема   Відповісти
Автор Повідомлення
DniproFilm 
VIP


З нами з: 10.10.18
Востаннє: 23.04.19
Повідомлень: 295

2018-12-29 20:21  
Вірус мертвих / Virus of the Dead (2018)

Вірус мертвих / Virus of the Dead (2018)


Жанр: жахи, бойовик, трилер
Країна: Велика Британія



Кінокомпанія: Vestra Pictures, Apparition Pictures, Body Bag Films
Режисер: Метью Джозеф Адамс, Гордон Брессак, Джеймс Каллен Брессак
Актори: Катрін Іствуд, Мхейрі Калві, Джессіка Енн Боннер, Джеймс Каллен Брессак, Нейтан Хед, Тімо Розе, Шейн Райан, Шон С. Філіпс, Нік Прінсип, Тара Емерсон та інші

Сюжет:
Антологія жахів про зомбі. Що станеться, коли вірус перетворить людей на живих мерців?


Тривалість: 01:42:20
Якість:

Відео:
кодек:
розмір кадру: 720x400
бітрейт: 1757 кб/с

Аудіо # 1:
мова: українська
переклад: багатоголосий закадровий
кодек: 2.0
бітрейт: 192 кб/с

Джерело озвучення:
DniproFilm
Info

Video
ID : 0
Format : MPEG-4 Visual
Format profile : Advanced [email protected]
Format settings : BVOP2
Format settings, BVOP : 2
Format settings, QPel : No
Format settings, GMC : No warppoints
Format settings, Matrix : Default (H.263)
Muxing mode : Packed bitstream
Codec ID :
Codec ID/Hint :
Duration : 1 h 42 min
Bit rate : 1 757 kb/s
Width : 720 pixels
Height : 400 pixels
Display aspect ratio : 16:9
Frame rate : 23.976 (24000/1001) FPS
Color space : YUV
Chroma subsampling : 4:2:0
Bit depth : 8 bits
Scan type : Progressive
Compression mode : Lossy
Bits/(Pixel*Frame) : 0.254
Stream size : 1.26 GiB (90%)
Writing library : 67

Audio
ID : 1
Format : AC-3
Format/Info : Audio Coding 3
Commercial name : Dolby Digital
Codec ID : 2000
Duration : 1 h 42 min
Bit rate mode : Constant
Bit rate : 192 kb/s
Channel(s) : 2 channels
Channel positions : Front: L R
Sampling rate : 48.0 kHz
Frame rate : 31.250 FPS (1536 SPF)
Bit depth : 16 bits
Compression mode : Lossy
Stream size : 141 MiB (10%)
Alignment : Aligned on interleaves
Interleave, duration : 42 ms (1.00 video frame)
Interleave, preload duratio : 512 ms
Service kind : Complete Main
Скріншоти


Увага, присутня відео та аудіореклама.


Джерело: DniproFilm


Авторський реліз (завантажувати можна без реєстрації)
 Трекер:    Зареєстрований   

Завантажити / скачати фільм українською



відео для новачків



 Зареєстрований:   2018-12-29 20:21
 Розмір:   1.4 GB 
 Оцінка фільму:   4.9/10 (Голосів: 16)
   
Інші релізи
   Вірус мертвих / Virus of the Dead (2018) 720p Ukr/Eng DniproFilm  0 / 0   3.16 GB   2018-12-29 20:21 
   Вірус мертвих / Virus of the Dead (2018) 1080p Ukr/Eng DniproFilm  0 / 0   5.22 GB   2018-12-29 20:21 
White_123 
Свій


З нами з: 15.02.13
Востаннє: 24.04.19
Повідомлень: 136

2018-12-29 21:06  
Сюжет:
Антологія жахів про зомбі. Що станеться, коли вірус перетворить людей на живих мерців?

Реально крутий опис сюжету)) Одним реченням доповнено лажовий постер і банальну назву, а все разом говорить про відстійний фільм.

KiraKenobi 
Частий відвідувач


З нами з: 15.08.12
Востаннє: 23.04.19
Повідомлень: 29

2018-12-30 03:42  
White_123 +1
Vovoos 
Частий відвідувач


З нами з: 09.06.12
Востаннє: 24.04.19
Повідомлень: 27

2019-01-03 11:52  
Не варто витрачати час на це г...
Мені подобаються фільми про зомбі, але це неможливо дивитись... знято на якусь дешеву камеру (не виключено, що на телефон), постійно трясеться зображення, незрозумілі перериви, якісь завантаження...
Одним словом - фу-фу-фу!!!
Мене вистарчило на 17 хв. і я це видалив...

Romanvolja 
Свій


З нами з: 02.02.12
Востаннє: 25.04.19
Повідомлень: 145

2019-02-13 10:26  
Моя оцінка (від 1 до 10) 0
Ваш часовий пояс: GMT + 2 Години

Нова тема   Відповісти