Вірус мертвих / Virus of the Dead (2018) 720p Ukr/Eng

Нові коментарі

Нова тема   Відповісти
Останній раз роздавалося rionchik (2019-12-15)
Автор Повідомлення
DniproFilm 
VIP


З нами з: 10.10.18
Востаннє: 13.12.19
Повідомлень: 308

2018-12-29 19:21  
Вірус мертвих / Virus of the Dead (2018) 720p Ukr/Eng

Вірус мертвих / Virus of the Dead (2018) 720p Ukr/Eng


Жанр: жахи, бойовик, трилер
Країна: Велика Британія



Кінокомпанія: Vestra Pictures, Apparition Pictures, Body Bag Films
Режисер: Метью Джозеф Адамс, Гордон Брессак, Джеймс Каллен Брессак
Актори: Катрін Іствуд, Мхейрі Калві, Джессіка Енн Боннер, Джеймс Каллен Брессак, Нейтан Хед, Тімо Розе, Шейн Райан, Шон С. Філіпс, Нік Прінсип, Тара Емерсон та інші

Сюжет:
Антологія жахів про зомбі. Що станеться, коли вірус перетворить людей на живих мерців?


Тривалість: 01:42:20
Якість: 720p

Відео:
кодек:
розмір кадру: 1280x720
бітрейт: 3849 кб/с

Аудіо # 1:
мова: українська
переклад: багатоголосий закадровий
кодек: 2.0
бітрейт: 192 кб/с

Аудіо # 2:
мова: англійська
переклад: оригінал
кодек: 2.0
бітрейт: 384 кб/с

Джерело озвучення:
DniproFilm
Info

Video
ID : 1
Format : AVC
Format/Info : Advanced Video Codec
Format profile : [email protected]
Format settings : CABAC / 4 Ref Frames
Format settings, CABAC : Yes
Format settings, ReFrames : 4 frames
Codec ID : V_MPEG4/ISO/AVC
Duration : 1 h 42 min
Bit rate : 3 849 kb/s
Width : 1 280 pixels
Height : 720 pixels
Display aspect ratio : 16:9
Frame rate mode : Constant
Frame rate : 23.976 (24000/1001) FPS
Standard : NTSC
Color space : YUV
Chroma subsampling : 4:2:0
Bit depth : 8 bits
Scan type : Progressive
Bits/(Pixel*Frame) : 0.174
Stream size : 2.75 GiB (87%)
Language : English
Default : Yes
Forced : No
Color range : Limited
Color primaries : BT.709
Transfer characteristics : BT.709
Matrix coefficients : BT.709

Audio #1
ID : 2
Format : AC-3
Format/Info : Audio Coding 3
Commercial name : Dolby Digital
Codec ID : A_AC3
Duration : 1 h 42 min
Bit rate mode : Constant
Bit rate : 192 kb/s
Channel(s) : 2 channels
Channel positions : Front: L R
Sampling rate : 48.0 kHz
Frame rate : 31.250 FPS (1536 SPF)
Bit depth : 16 bits
Compression mode : Lossy
Stream size : 141 MiB (4%)
Title : DniproFilm
Language : Ukrainian
Service kind : Complete Main
Default : Yes
Forced : No

Audio #2
ID : 3
Format : AC-3
Format/Info : Audio Coding 3
Codec ID : A_AC3
Duration : 1 h 41 min
Bit rate : 384 kb/s
Channel(s) : 2 channels
Sampling rate : 48.0 kHz
Frame rate : 31.250 FPS (1536 SPF)
Compression mode : Lossy
Stream size : 280 MiB (9%)
Language : English
Default : No
Forced : No
Скріншоти


Увага, присутня відео та аудіореклама.


Джерело озвучення: DniproFilm


Авторський реліз (завантажувати можна без реєстрації)
 Трекер:    Зареєстрований   

Завантажити / скачати фільм українською



відео для новачків



 Зареєстрований:   2018-12-29 19:21
 Розмір:   3.16 GB 
 Оцінка фільму:   4.9/10 (Голосів: 7)
   
Інші релізи
   Вірус мертвих / Virus of the Dead (2018) DniproFilm  0 / 0   1.4 GB   2018-12-29 19:21 
   Вірус мертвих / Virus of the Dead (2018) 1080p Ukr/Eng DniproFilm  0 / 0   5.22 GB   2018-12-29 19:21 
casper101 
VIP


З нами з: 03.12.09
Востаннє: 15.12.19
Повідомлень: 433

2019-04-15 22:42  
я не розумію для чого тратити час і сили на переклад цього.
Ваш часовий пояс: GMT + 2 Години

Нова тема   Відповісти