Щенячий патруль / PAW Patrol (Сезон 5) (2018) AVC

Нові коментарі

Нова тема   Відповісти
Автор Повідомлення
sergiyko.5 
VIP


З нами з: 25.02.16
Востаннє: 17.02.20
Повідомлень: 2937

2018-12-29 17:22  


Щенячий патруль / PAW Patrol (Сезон 5) (2018) AVC

Щенячий патруль / PAW Patrol (Сезон 5) (2018) AVC

Жанр: дитячий, пригоди
Країна: Канада, США
Режисер: Кейт Чепмен

Сюжет:
"Щенячий патруль" - це цікава задумка, корисні поради та повчальні ситуації. Головний герой, Райдер, 12-ти річний хлопчик. У своєму такому ранньому віці він організував команду з порятунку. Вона складається з самого організатора, тільки тепер він уже керівник сімох щенят.

Райдер дивує людей своїм розумом і розвиненістю не по роках, так як він вже встиг успішно закінчити школу. Багатьом рисам характеру хлопчика варто повчитися: героїзм, відповідальність, доброта, людяність і це не повний список. Щоб патруль працював якомога оперативніше, Райдер забезпечив всією необхідною технікою. Наприклад, щенофоном, спеціально облаштованим пристроєм. Щоб придумати план, команда збирається разом.




Тривалість: 1 серія: 22:16 (цілком серій: 26 з 26)
Якість:

Відео: кодек: розмір кадру: 1024x576 бітрейт: 900 кб/с
Аудіо: мова: українська переклад: професійний дубльований кодек: AАС 2.0 бітрейт: 128 кб/с
Озвучення:

Примітка: трансляція що з супутника що з сайту 1+1 Video йшла зі звуковою доріжкою в режимі DualMono.
Перелік серій
01 Щенята рятують команду кошенят-рятувальників / Щенята рятують страуса
02 Щенята рятують великолапа / Щенята рятують гамокат
03 Щенята рятують затонулий шлюп / Щенята рятують вертлявого кита
04 Щенята рятують летючу Скай / Щенята рятують золото
05 Щенята рятують екстремальний обід / Щенята рятують викрадачку котиків
06 Щенята рятують летючий водолазний дзвін / Щенята рятують затоплену ферму
07 Щенята рятують метеликів / Щенята рятують підземну курочку
08 Щенята рятують пересувну бібліотеку / Щенята рятують мера Гамдінгера
09 Щенята рятують викрадений морський патрульник
10 Щенята рятують папаю / Щенята рятують зерносховище
11 Щенята рятують королівських кошенят
12 Щенята рятують Гудвеїв у снігоступах / Щенята рятують качиний став
13 Щенята рятують Тілі Палтус / Щенята рятують сумного слоника
14 Щенята рятують тигрів
15 Рокі рятує себе / Щенята та таємниця безпілотного снігоочисника
16 Щенята рятують Гелловін / Щенята рятують міні-патруль
17 Щенята рятують кіномонстра
18 Щенята рятують королівський концерт / Щенята рятують друзів принцеси
19 Щенята і вовко-щеня / Щенята рятують мера сновиду
20 Щенята рятують болотяного монстра / Щенята і сховані золоті кості
21 Щенята рятують годинник з зозулею / Щенята рятують дім пані Марджері
22 Щенята рятують День подяки / Щенята рятують Бухту вітрів
23 Щенята рятують замерзлий табір / Щенята рятують огірки
24 Щенята рятують хапайстра / Щенята рятують талісман
25 Щенята рятують обсерваторію-втікачку
26 Щенята рятують подарунок для Ейс / Щенята рятують вежу з піц
Інформація про файл:
General
Unique ID : 311806713050541022552769515512338242861 (0xEA93C9DE939CA6C84E9A5E14E872DD2D)
Complete name : G:\Torrents2\MULT\MuSERIAL\Paw Patrol S05 \S05E01.Pups Save the Kitty Rescue Crew-Pups Save an Ostrich..
Format :
Format version : Version 4
File size : 163 MiB
Duration : 22 min 15 s
Overall bit rate : 1 022 kb/s
Movie name : Paw Patrol S05 by sergiyko
Encoded date : UTC 2018-12-29 15:17:18
Writing application : v29.0.0 ('Like It Or Not') 64-bit
Writing library : libebml v1.3.6 + v1.4.9

Video
ID : 1
Format : AVC
Format/Info : Advanced Video Codec
Format profile : [email protected]
Format settings : CABAC / 6 Ref Frames
Format settings, CABAC : Yes
Format settings, ReFrames : 6 frames
Format settings, GOP : M=2, N=15
Codec ID : V_MPEG4/ISO/AVC
Duration : 22 min 15 s
Bit rate : 891 kb/s
Width : 1 024 pixels
Height : 576 pixels
Display aspect ratio : 16:9
Frame rate mode : Constant
Frame rate : 25.000 FPS
Color space : YUV
Chroma subsampling : 4:2:0
Bit depth : 8 bits
Scan type : Progressive
Bits/(Pixel*Frame) : 0.060
Stream size : 142 MiB (87%)
Title : S05E01 Щенята рятують команду кошенят-рятувальник?в / Щенята рятують страуса
Language : English
Default : Yes
Forced : No

Audio
ID : 2
Format : LC
Format/Info : Advanced Audio Codec Low Complexity
Codec ID : A_AAC-2
Duration : 22 min 15 s
Bit rate : 128 kb/s
Channel(s) : 2 channels
Channel layout : L R
Sampling rate : 44.1 kHz
Frame rate : 43.066 FPS (1024 SPF)
Compression mode : Lossy
Stream size : 20.4 MiB (13%)
Title : DUB | ПлюсПлюс
Language : Ukrainian
Default : Yes
Forced : No
Скріншоти:


Запис/ріп: sergiyko


Бронзовий реліз (на рейтинг впливає 75% завантаженого)
 Трекер:    Зареєстрований   

Завантажити / скачати мультфільм українською



відео для новачків



 Зареєстрований:   2019-12-30 00:50
 Розмір:   4.38 GB 
 Оцінка мультсеріалу:   9.6/10 (Голосів: 43)
   
andros507 
VIP


З нами з: 15.09.10
Востаннє: 17.02.20
Повідомлень: 317

2018-12-29 18:21  
Цитата:
Примітка: трансляція що з супутника що з сайту 1+1 Video йшла зі звуковою доріжкою в режимі DualMono

Цікаво, а в одеському Т2 може бути краща якість?

andik1 
Новенький


З нами з: 10.06.12
Востаннє: 11.02.20
Повідомлень: 13

2019-01-07 19:14  
Коли наступні серії хлопаки??? Діти чекають)
911mobile 
Новенький


З нами з: 11.09.16
Востаннє: 15.02.20
Повідомлень: 1

2019-03-12 09:42  
Не зупиняється на 5 секунді всі відео , підскажіть чому?
nikalexey 
Свій


З нами з: 15.08.17
Востаннє: 16.02.20
Повідомлень: 65

2019-06-05 16:08  
дякую за реліз, син вже давно чекав на продовження

дякую за переклад українською

sergiyko.5 
VIP


З нами з: 25.02.16
Востаннє: 17.02.20
Повідомлень: 2937

2019-12-30 00:51  
Торент оновлено. Додав 14-26 серії. Сезон повний. Приємного перегляду!
max256 
Новенький


З нами з: 22.12.08
Востаннє: 15.02.20
Повідомлень: 3

2020-01-23 21:25  
В мене нові серії телевізор відмовився відтворювати Sad (1)
Ваш часовий пояс: GMT + 2 Години

Нова тема   Відповісти