Щенячий патруль / PAW Patrol (Сезон 5) (2018) 1080p

Нові коментарі

Нова тема   Відповісти
Автор Повідомлення
sergiyko.5 
Забанено
Забанено


З нами з: 25.02.16
Востаннє: 29.10.20
Повідомлень: 3648

2018-12-29 17:58  


Щенячий патруль / PAW Patrol (Сезон 5) (2018) 1080p

Щенячий патруль / PAW Patrol (Сезон 5) (2018) 1080p

Жанр: дитячий, пригоди
Країна: Канада, США
Режисер: Кейт Чепмен

Сюжет:
"Щенячий патруль" - це цікава задумка, корисні поради та повчальні ситуації. Головний герой, Райдер, 12-ти річний хлопчик. У своєму такому ранньому віці він організував команду з порятунку. Вона складається з самого організатора, тільки тепер він уже керівник сімох щенят.

Райдер дивує людей своїм розумом і розвиненістю не по роках, так як він вже встиг успішно закінчити школу. Багатьом рисам характеру хлопчика варто повчитися: героїзм, відповідальність, доброта, людяність і це не повний список. Щоб патруль працював якомога оперативніше, Райдер забезпечив всією необхідною технікою. Наприклад, щенофоном, спеціально облаштованим пристроєм. Щоб придумати план, команда збирається разом.




Тривалість: 1 серія: 22:16 (цілком серій: 26 з 26)
Якість:

Відео: кодек: розмір кадру: 1920x1080 бітрейт: 2800 кб/с
Аудіо: мова: українська переклад: професійний дубльований кодек: AАС 2.0 бітрейт: 256 кб/с
Озвучення:

Примітка: трансляція що з супутника що з сайту 1+1 Video йшла зі звуковою доріжкою в режимі DualMono.
Перелік серій
01 Щенята рятують команду кошенят-рятувальників / Щенята рятують страуса
02 Щенята рятують великолапа / Щенята рятують гамокат
03 Щенята рятують затонулий шлюп / Щенята рятують вертлявого кита
04 Щенята рятують летючу Скай / Щенята рятують золото
05 Щенята рятують екстремальний обід / Щенята рятують викрадачку котиків
06 Щенята рятують летючий водолазний дзвін / Щенята рятують затоплену ферму
07 Щенята рятують метеликів / Щенята рятують підземну курочку
08 Щенята рятують пересувну бібліотеку / Щенята рятують мера Гамдінгера
09 Щенята рятують викрадений морський патрульник
10 Щенята рятують папаю / Щенята рятують зерносховище
11 Щенята рятують королівських кошенят
12 Щенята рятують Гудвеїв у снігоступах / Щенята рятують качиний став
13 Щенята рятують Тілі Палтус / Щенята рятують сумного слоника
14 Щенята рятують тигрів
15 Рокі рятує себе / Щенята та таємниця безпілотного снігоочисника
16 Щенята рятують Гелловін / Щенята рятують міні-патруль
17 Щенята рятують кіномонстра
18 Щенята рятують королівський концерт / Щенята рятують друзів принцеси
19 Щенята і вовко-щеня / Щенята рятують мера сновиду
20 Щенята рятують болотяного монстра / Щенята і сховані золоті кості
21 Щенята рятують годинник з зозулею / Щенята рятують дім пані Марджері
22 Щенята рятують День подяки / Щенята рятують Бухту вітрів
23 Щенята рятують замерзлий табір / Щенята рятують огірки
24 Щенята рятують хапайстра / Щенята рятують талісман
25 Щенята рятують обсерваторію-втікачку
26 Щенята рятують подарунок для Ейс / Щенята рятують вежу з піц
Інформація про файл:
General
Unique ID : 136204138421134943030449361690189708777 (0x6677F67EE03BC61D9DE46E4A8A853DE9)
Complete name : G:\Torrents2\MULT\MuSERIAL\Paw Patrol S05 1080p \S05E01.Pups Save the Kitty Rescue Crew-Pups Save an Ostrich.1080p..
Format :
Format version : Version 4
File size : 480 MiB
Duration : 22 min 15 s
Overall bit rate : 3 013 kb/s
Movie name : Paw Patrol S05 1080p by sergiyko
Encoded date : UTC 2018-12-29 14:47:15
Writing application : v29.0.0 ('Like It Or Not') 64-bit
Writing library : libebml v1.3.6 + v1.4.9

Video
ID : 1
Format : AVC
Format/Info : Advanced Video Codec
Format profile : [email protected]
Format settings : CABAC / 6 Ref Frames
Format settings, CABAC : Yes
Format settings, ReFrames : 6 frames
Codec ID : V_MPEG4/ISO/AVC
Duration : 22 min 15 s
Bit rate : 2 754 kb/s
Width : 1 920 pixels
Height : 1 080 pixels
Display aspect ratio : 16:9
Frame rate mode : Constant
Frame rate : 25.000 FPS
Color space : YUV
Chroma subsampling : 4:2:0
Bit depth : 8 bits
Scan type : Progressive
Bits/(Pixel*Frame) : 0.053
Stream size : 439 MiB (91%)
Title : S05E01 Щенята рятують команду кошенят-рятувальник?в / Щенята рятують страуса
Language : English
Default : Yes
Forced : No

Audio
ID : 2
Format : LC
Format/Info : Advanced Audio Codec Low Complexity
Codec ID : A_AAC-2
Duration : 22 min 15 s
Bit rate : 256 kb/s
Channel(s) : 2 channels
Channel layout : L R
Sampling rate : 44.1 kHz
Frame rate : 43.066 FPS (1024 SPF)
Compression mode : Lossy
Stream size : 40.8 MiB (8%)
Title : DUB | ПлюсПлюс
Language : Ukrainian
Default : Yes
Forced : No
Скріншоти:


Запис/ріп: sergiyko


Бронзовий реліз (на рейтинг впливає 75% завантаженого)
 Трекер:    Зареєстрований   

Завантажити / скачати мультфільм українською



відео для новачків



 Зареєстрований:   2019-12-30 13:16
 Розмір:   14.49 GB 
 Оцінка мультсеріалу:   9.8/10 (Голосів: 22)
   
sergiyko.5 
Забанено
Забанено


З нами з: 25.02.16
Востаннє: 29.10.20
Повідомлень: 3648

2018-12-29 17:59  
Нових серій поки не передбачається, телеканал почав транслювати повтори.
sergiyko.5 
Забанено
Забанено


З нами з: 25.02.16
Востаннє: 29.10.20
Повідомлень: 3648

2019-12-30 13:16  
Торент оновлено. Додав 14-26 серії. Сезон повний. Приємного перегляду!
FUFFUF_LEGAL 
Новенький


З нами з: 21.11.16
Востаннє: 24.12.20
Повідомлень: 5

2020-04-17 18:48  
не відтворюється з 14 серії..
qorys 
Новенький


З нами з: 31.12.16
Востаннє: 31.03.21
Повідомлень: 9

2020-05-18 17:21  
FUFFUF_LEGAL

наче відтворюється

Ваш часовий пояс: GMT + 2 Години

Нова тема   Відповісти