Убивства за абеткою (Сезон 1) / The ABC Murders (Season 1) (2018)

Нові коментарі

Нова тема   Відповісти
Автор Повідомлення
DniproFilm 
VIP


З нами з: 10.10.18
Востаннє: 15.02.19
Повідомлень: 288

2018-12-29 04:58  
Убивства за абеткою (Сезон 1) / The ABC Murders (Season 1) (2018)

Убивства за абеткою (Сезон 1) / The ABC Murders (Season 1) (2018)


Жанр: детектив, драма, кримінальний, трилер
Країна: Велика Британія



Кінокомпанія / телеканал: Agatha Christie Productions, Mammoth Screen
Режисер: Алекс Габассі
Актори: Джон Малкович, Ендрю Бакан, Імон Феррен, Фрейя Мавор, Ів Гордон, Аня Чалотра, Джек Фартінг, Тара Фітцджеральд, Руперт Грінт та інші

Сюжет:
Сюжет добре відомий усім шанувальникам класики детективного жанру. Серійний вбивця вбиває нічим між собою не пов'язаних людей в алфавітному порядку їх імен. Вбивця відправляє Еркюлю Пуаро лист перед кожним вбивством, повідомляючи де і коли буде здійснено черговий злочин, але поліція та славетний детектив завжди з’являються із запізненням. Розплутати цю надскладну справу допомагає лише щасливий випадок…

Тривалість: 1 серія: ~ 60 хв. (цілком серій: 3)
Перелік серій

1. Episode 1
2. Episode 2
3. Episode 3
Якість:
Відео:
кодек:
розмір кадру: 720x360
бітрейт: 1597 кб/с

Аудіо # 1:
мова: українська
переклад: багатоголосий закадровий
кодек: 5.1
бітрейт: 384 кб/с

Джерело озвучення:
DniproFilm
Info

Video
ID : 0
Format : MPEG-4 Visual
Format profile : Advanced [email protected]
Format settings : BVOP2
Format settings, BVOP : 2
Format settings, QPel : No
Format settings, GMC : No warppoints
Format settings, Matrix : Default (H.263)
Muxing mode : Packed bitstream
Codec ID :
Codec ID/Hint :
Duration : 56 min 22 s
Bit rate : 1 597 kb/s
Width : 720 pixels
Height : 360 pixels
Display aspect ratio : 2.000
Frame rate : 25.000 FPS
Color space : YUV
Chroma subsampling : 4:2:0
Bit depth : 8 bits
Scan type : Progressive
Compression mode : Lossy
Bits/(Pixel*Frame) : 0.246
Stream size : 644 MiB (80%)
Writing library : 67

Audio
ID : 1
Format : AC-3
Format/Info : Audio Coding 3
Commercial name : Dolby Digital
Codec ID : 2000
Duration : 56 min 22 s
Bit rate mode : Constant
Bit rate : 384 kb/s
Channel(s) : 6 channels
Channel positions : Front: L C R, Side: L R, LFE
Sampling rate : 48.0 kHz
Frame rate : 31.250 FPS (1536 SPF)
Bit depth : 16 bits
Compression mode : Lossy
Stream size : 155 MiB (19%)
Alignment : Aligned on interleaves
Interleave, duration : 40 ms (1.00 video frame)
Interleave, preload duratio : 512 ms
Service kind : Complete Main
Скріншоти


Увага, присутня відео та аудіореклама.

Додано 3 серію (фінал сезону).


Джерело: DniproFilm


Авторський реліз (завантажувати можна без реєстрації)
 Трекер:    Зареєстрований   

Завантажити / скачати серіал українською



відео для новачків



 Зареєстрований:   2019-01-03 19:42
 Розмір:   2.48 GB 
 Оцінка серіалу:   9.9/10 (Голосів: 27)
   
Антонн 
Новенький


З нами з: 08.02.13
Востаннє: 13.02.19
Повідомлень: 4

2018-12-29 17:18  
Круто
DniproFilm 
VIP


З нами з: 10.10.18
Востаннє: 15.02.19
Повідомлень: 288

2018-12-30 00:12  
УВАГА! РЕЛІЗ ОНОВЛЕНО! (30.12.2018) Додано 2 серію.

DniproFilm 
VIP


З нами з: 10.10.18
Востаннє: 15.02.19
Повідомлень: 288

2019-01-03 19:44  
УВАГА! РЕЛІЗ ОНОВЛЕНО! (03.01.2019) Додано 3 серію (фінал сезону).

Ваш часовий пояс: GMT + 2 Години

Нова тема   Відповісти