Убивства за абеткою (Сезон 1) / The ABC Murders (Season 1) (2018) 1080p Ukr/Eng

Нові коментарі

Нова тема   Відповісти
Автор Повідомлення
DniproFilm 
VIP


З нами з: 10.10.18
Востаннє: 29.11.20
Повідомлень: 443

2018-12-29 04:58  
Убивства за абеткою (Сезон 1) / The ABC Murders (Season 1) (2018) 1080p Ukr/Eng

Убивства за абеткою (Сезон 1) / The ABC Murders (Season 1) (2018) 1080p Ukr/Eng


Жанр: детектив, драма, кримінальний, трилер
Країна: Велика Британія



Кінокомпанія / телеканал: Agatha Christie Productions, Mammoth Screen
Режисер: Алекс Габассі
Актори: Джон Малкович, Ендрю Бакан, Імон Феррен, Фрейя Мавор, Ів Гордон, Аня Чалотра, Джек Фартінг, Тара Фітцджеральд, Руперт Грінт та інші

Сюжет:
Сюжет добре відомий усім шанувальникам класики детективного жанру. Серійний вбивця вбиває нічим між собою не пов'язаних людей в алфавітному порядку їх імен. Вбивця відправляє Еркюлю Пуаро лист перед кожним вбивством, повідомляючи де і коли буде здійснено черговий злочин, але поліція та славетний детектив завжди з’являються із запізненням. Розплутати цю надскладну справу допомагає лише щасливий випадок…


Тривалість: 1 серія: ~ 60 хв. (цілком серій: 3)
Перелік серій

1. Episode 1
2. Episode 2
3. Episode 3
Якість: 1080p
Відео:
кодек:
розмір кадру: 1920x960
бітрейт: 6919 кб/с

Аудіо # 1:
мова: українська
переклад: багатоголосий закадровий
кодек: 5.1
бітрейт: 384 кб/с

Аудіо # 2:
мова: англійська
переклад: оригінал
кодек: 5.1
бітрейт: 640 кб/с

Джерело озвучення:
DniproFilm
Info

Video
ID : 1
Format : AVC
Format/Info : Advanced Video Codec
Format profile : [email protected]
Format settings : CABAC / 4 Ref Frames
Format settings, CABAC : Yes
Format settings, ReFrames : 4 frames
Codec ID : V_MPEG4/ISO/AVC
Duration : 56 min 22 s
Bit rate : 6 919 kb/s
Width : 1 920 pixels
Height : 960 pixels
Display aspect ratio : 2.000
Frame rate mode : Constant
Frame rate : 25.000 FPS
Standard : PAL
Color space : YUV
Chroma subsampling : 4:2:0
Bit depth : 8 bits
Scan type : Progressive
Bits/(Pixel*Frame) : 0.150
Stream size : 2.72 GiB (87%)
Language : English
Default : Yes
Forced : No
Color range : Limited
Color primaries : BT.709
Transfer characteristics : BT.709
Matrix coefficients : BT.709

Audio #1
ID : 2
Format : AC-3
Format/Info : Audio Coding 3
Commercial name : Dolby Digital
Codec ID : A_AC3
Duration : 56 min 22 s
Bit rate mode : Constant
Bit rate : 384 kb/s
Channel(s) : 6 channels
Channel positions : Front: L C R, Side: L R, LFE
Sampling rate : 48.0 kHz
Frame rate : 31.250 FPS (1536 SPF)
Bit depth : 16 bits
Compression mode : Lossy
Stream size : 155 MiB (5%)
Title : DniproFilm
Language : Ukrainian
Service kind : Complete Main
Default : Yes
Forced : No

Audio #2
ID : 3
Format : AC-3
Format/Info : Audio Coding 3
Codec ID : A_AC3
Duration : 55 min 51 s
Bit rate : 640 kb/s
Channel(s) : 6 channels
Sampling rate : 48.0 kHz
Frame rate : 31.250 FPS (1536 SPF)
Compression mode : Lossy
Stream size : 256 MiB (8%)
Language : English
Default : No
Forced : No
Скріншоти


Увага, присутня відео та аудіореклама.

Додано 3 серію (фінал сезону).


Джерело: DniproFilm


Авторський реліз (завантажувати можна без реєстрації)
 Трекер:    Зареєстрований   

Завантажити / скачати серіал українською



відео для новачків



 Зареєстрований:   2019-01-03 19:42
 Розмір:   9.57 GB 
 Оцінка серіалу:   9.6/10 (Голосів: 10)
   
DniproFilm 
VIP


З нами з: 10.10.18
Востаннє: 29.11.20
Повідомлень: 443

2018-12-30 00:12  
УВАГА! РЕЛІЗ ОНОВЛЕНО! (30.12.2018) Додано 2 серію.

DniproFilm 
VIP


З нами з: 10.10.18
Востаннє: 29.11.20
Повідомлень: 443

2019-01-03 19:43  
УВАГА! РЕЛІЗ ОНОВЛЕНО! (03.01.2019) Додано 3 серію (фінал сезону).

0mage0 
VIP


З нами з: 06.10.15
Востаннє: 01.12.20
Повідомлень: 709

2019-10-14 17:41  
Загалом цікаве вийшло кіно, тільки незрозуміло, чому вони так сильно змінили особистість Пуаро, його історію.
Сашко_Панса 
Частий відвідувач


З нами з: 10.12.16
Востаннє: 24.10.20
Повідомлень: 27

2019-11-15 00:37  
Не уявляю, як вони насмілилися замахнутися на неперевершеного Еркюля Пуаро у блискучому виконанні Девіда Суше (не кажучи про інших героїв!). Muted
Ваш часовий пояс: GMT + 2 Години

Нова тема   Відповісти