Король Лев. Трилогія / The Lion King. Trilogy (1994-1998-2004) AVC Ukr/Eng | Sub Ukr/Eng

Нові коментарі

Нова тема   Відповісти
Автор Повідомлення
NemoInFire 
Відео Гуртом - фільмокрай
Відео Гуртом - фільмокрай


З нами з: 12.11.07
Востаннє: 25.04.19
Повідомлень: 628

2018-12-29 01:16  
Король Лев. Трилогія / The Lion King. Trilogy (1994-1998-2004) AVC Ukr/Eng | Sub Ukr/Eng

Король Лев. Трилогія / The Lion King. Trilogy (1994-1998-2004) AVC Ukr/Eng | Sub Ukr/Eng
Король Лев / The Lion King (1994) AVC Ukr/Eng | sub Ukr/Eng
Король Лев / The Lion King (1994) AVC Ukr/Eng | sub Ukr/Eng

Король Лев. Трилогія / The Lion King. Trilogy (1994-1998-2004) AVC Ukr/Eng | Sub Ukr/Eng


Жанр: анімація, пригодницький, драма
Країна: США



Кінокомпанія: Walt Disney Pictures
Режисер: Роджер Аллерс, Роб Мінкоф
Ролі озвучують: Метью Бродерік, Нікета Калам, Джим Каммінгс, Джеймс Ерл Джонс, Натан Лейн, Ерні Сабелла, Джеремі Айронс, Роберт Джилліам, Ровен Аткінсон, Мойра Келлі, Вупі Голдберг, Чіч Марін та інші

Сюжет:
У величного Короля-Лева Муфаси народжується спадкоємець на ім'я Сімба. Вже в дитинстві допитливе маля стає жертвою інтриг свого дядька Шрама, який мріє про владу. Сімба пізнає горе втрати, зраду і вигнання, але врешті-решт знаходить вірних друзів і кохану. Загартований випробуваннями, він в нелегкій боротьбі відвойовує своє законне місце в "Колі життя", усвідомивши, що означає бути справжнім Королем.


Тривалість: 01:28:23
Якість: AVC
Відео:
кодек:
розмір кадру: 1152 х 648
бітрейт: 2197 кб/с

Аудіо:
мова: українська
переклад: професійний дубльований
кодек: 5.1
бітрейт: 448 кб/с
Інформація про озвучення

Дубльовано LeDoyen Studio на замовлення Disney character voices, international.
Переклад тексту та пісень: Роман Дяченко
Музичний керівник: Іван Давиденко
Режисер дубляжу: Анна Пащенко
Творчий консультант: Aleksandra Sadowska
Ролі дублювали: Метью Бродерік/Сімба — Іван Розін, Джонатан Тейлор Томас/Юний Сімба — Богдан Темченко, Мойра Келлі/Нала — Валентина Лонська, Нікета Калем/Юна Нала — Ганна Голосніченко, Джеймс Ерл Джонс/Муфаса — Олександр Ігнатуша, Джеремі Айронс/Шрам — Володимир Терещук, Натан Лейн/Тімон — Павло Скороходько, Пумба — Євген Лунченко, Зазу — В’ячеслав Довженко, Рафікі — Валерій Шептекіта, Сарабі — Наталя Ярошенко, Банзай — Юрій Ребрик, Шензі — Ганна Левченко; а також: Андрій Мостренко, Людмила Ардельян, Володимир Сухін, Рубен Толмачов, Ольга Нека, Світлана Заря, Лідія Лохматова та інші.
Пісні:
«Коло життя» виконують — Наталя Єфименко та хор.
«Хай-но стану я королем» виконують — В’ячеслав Довженко, Богдан Темченко, Ганна Голосніченко та хор.
«Час настав» виконують виконують — Володимир Терещук та хор.
«Акуна-матата» виконують — Павло Скороходько, Євген Лунченко, Богдан Темченко, Іван Розін
«Заснув могутній лев» виконують — Павло Скороходько, Євген Лунченко
«Серцем ти відчуй любов» виконують — Павло Скороходько, Євген Лунченко, Іван Розін, Валентина Лонська, Наталя Гура та хор.
Аудіо2:
мова: англійська
переклад: оригінал
кодек: 5.1
бітрейт: 448 кб/с

Субтитри:
мова: українські форсовані / українські повні / англійські
тип: програмні (м'які)
формат: *.srt
Info
General
Unique ID : 250367484488968877108602877930894852248 (0xBC5B06073AE1EE4A9C9B3B6902390098)
Complete name : D:\The Lion King\The Lion King (1994) AVC [UKR_ENG sub ukr_eng] [Hurtom].
Format :
Format version : Version 2
File size : 1.95 GiB
Duration : 1 h 28 min
Overall bit rate : 3 156 kb/s
Movie name : The Lion King (1994) AVC
Encoded date : UTC 2018-12-28 20:52:49
Writing application : v4.9.1 ('Ich will') зібрано Jul 11 2011 23:53:15
Writing library : libebml v1.2.1 + v1.1.1

Video
ID : 1
Format : AVC
Format/Info : Advanced Video Codec
Format profile : [email protected]
Format settings : CABAC / 10 Ref Frames
Format settings, CABAC : Yes
Format settings, RefFrames : 10 frames
Codec ID : V_MPEG4/ISO/AVC
Duration : 1 h 28 min
Bit rate : 2 197 kb/s
Width : 1 152 pixels
Height : 648 pixels
Display aspect ratio : 16:9
Frame rate mode : Constant
Frame rate : 23.976 (24000/1001) FPS
Color space : YUV
Chroma subsampling : 4:2:0
Bit depth : 8 bits
Scan type : Progressive
Bits/(Pixel*Frame) : 0.123
Stream size : 1.36 GiB (70%)
Title : The Lion King (1994) AVC
Writing library : core 148 r2638+53 bb29004 t_mod_Custom [[email protected] X86_64]
Encoding settings : cabac=1 / ref=10 / deblock=1:-1:-1 / analyse=0x3:0x113 / me=umh / subme=11 / psy=1 / fade_compensate=0.00 / psy_rd=0.55:0.00 / mixed_ref=1 / me_range=48 / chroma_me=1 / trellis=2 / 8x8dct=1 / cqm=0 / deadzone=21,11 / fast_pskip=0 / chroma_qp_offset=-2 / threads=6 / lookahead_threads=2 / sliced_threads=0 / nr=0 / decimate=0 / interlaced=0 / bluray_compat=0 / constrained_intra=0 / fgo=0 / bframes=13 / b_pyramid=2 / b_adapt=2 / b_bias=0 / direct=3 / weightb=1 / open_gop=0 / weightp=2 / keyint=240 / keyint_min=23 / scenecut=40 / intra_refresh=0 / rc_lookahead=60 / rc=crf / mbtree=1 / crf=17.3000 / qcomp=0.70 / qpmin=0:0:0 / qpmax=69:69:69 / qpstep=4 / vbv_maxrate=20000 / vbv_bufsize=25000 / crf_max=0.0 / nal_hrd=none / filler=0 / ip_ratio=1.40 / aq=3:0.50 / aq-sensitivity=10.00 / aq-factor=1.00:1.00:1.00 / aq2=0 / aq3=4:[0.50:0.50]:[0.50:0.50]:[0.50:0.50]:[0.50:0.50] / aq3-sensitivity=15.00 / aq3-factor=[1.00:1.00]:[1.00:1.00]:[1.00:1.00] / aq3-boundary=192:64:24 / zones=60,1250,b=1.46/1251,1451,b=1.96/1452,3036,b=1.36/3419,3811,b=1.56/4472,4941,b=1.92/8771,9639,b=1.48/12057,13476,b=1.32/18392,18867,b=1.36/27393,28420,b=1.62/33105,33955,b=1.54/34971,35657,b=1.57/42676,43001,b=1.41/94324,97370,b=1.49/101391,104689,b=1.62/108890,116103,b=1.35/119973,126965,b=0.36
Language : English
Default : Yes
Forced : No

Audio #1
ID : 2
Format : AC-3
Format/Info : Audio Coding 3
Commercial name : Dolby Digital
Codec ID : A_AC3
Duration : 1 h 28 min
Bit rate mode : Constant
Bit rate : 448 kb/s
Channel(s) : 6 channels
Channel layout : L R C LFE Ls Rs
Sampling rate : 48.0 kHz
Frame rate : 31.250 FPS (1536 SPF)
Bit depth : 16 bits
Compression mode : Lossy
Stream size : 283 MiB (14%)
Title : АС3 5.1 448 kbps LeDoyen Studio
Language : Ukrainian
Service kind : Complete Main
Default : No
Forced : Yes

Audio #2
ID : 3
Format : AC-3
Format/Info : Audio Coding 3
Commercial name : Dolby Digital
Codec ID : A_AC3
Duration : 1 h 28 min
Bit rate mode : Constant
Bit rate : 448 kb/s
Channel(s) : 6 channels
Channel layout : L R C LFE Ls Rs
Sampling rate : 48.0 kHz
Frame rate : 31.250 FPS (1536 SPF)
Bit depth : 16 bits
Compression mode : Lossy
Stream size : 283 MiB (14%)
Title : АС3 5.1 @ 448 kbps - Original
Language : English
Service kind : Complete Main
Default : No
Forced : No

Text #1
ID : 4
Format : UTF-8
Codec ID : S_TEXT/UTF8
Codec ID/Info : UTF-8 Plain Text
Title : українська (forced)
Language : Ukrainian
Default : Yes
Forced : No

Text #2
ID : 5
Format : UTF-8
Codec ID : S_TEXT/UTF8
Codec ID/Info : UTF-8 Plain Text
Title : українська (full)
Language : Ukrainian
Default : No
Forced : No

Text #3
ID : 6
Format : UTF-8
Codec ID : S_TEXT/UTF8
Codec ID/Info : UTF-8 Plain Text
Title : Full
Language : English
Default : No
Forced : No

Menu
00:00:00.000 : :Chapter 01
00:04:40.071 : :Chapter 02
00:08:10.405 : :Chapter 03
00:11:28.979 : :Chapter 04
00:14:09.557 : :Chapter 05
00:17:51.028 : :Chapter 06
00:22:54.748 : :Chapter 07
00:25:36.116 : :Chapter 08
00:30:24.196 : :Chapter 09
00:35:52.150 : :Chapter 10
00:40:14.077 : :Chapter 11
00:41:14.429 : :Chapter 12
00:44:16.945 : :Chapter 13
00:48:20.563 : :Chapter 14
00:50:07.210 : :Chapter 15
00:53:14.773 : :Chapter 16
00:57:50.842 : :Chapter 17
01:00:56.568 : :Chapter 18
01:02:32.331 : :Chapter 19
01:08:49.625 : :Chapter 20
01:12:41.023 : :Chapter 21
01:16:42.305 : :Chapter 22
01:20:45.131 : :Chapter 23
01:23:23.872 : :Chapter 24
01:28:23.296 : :Chapter 25
Скріншоти






Король Лев ІІ: гордість Сімби / The Lion King II: Simba's Pride (1998) AVC Ukr/Eng | sub Ukr/Eng
Король Лев ІІ: гордість Сімби / The Lion King II: Simba's Pride (1998) AVC Ukr/Eng | sub Ukr/Eng

Король Лев. Трилогія / The Lion King. Trilogy (1994-1998-2004) AVC Ukr/Eng | Sub Ukr/Eng


Жанр: анімація, пригодницький, сімейний
Країна: США, Австралія



Кінокомпанія: Walt Disney Pictures
Режисер: Дарел Руні, Роб ЛаДука
Ролі озвучують: Метью Бродерік, Нів Кемпбел, Джеймс Ерл Джонс, Натан Лейн та інші

Сюжет:
Пригоди доньки Сімби - кмітливої Кіари.


Тривалість: 01:20:49
Якість: AVC
Відео:
кодек:
розмір кадру: 1152 х 648
бітрейт: 2893 кб/с

Аудіо:
мова: українська
переклад: професійний дубльований
кодек: 2.0
бітрейт: 192 кб/с
Інформація про озвучення

Переклад: Олег Колесніков
Режисер дубляжу: Ольга Фокіна
Музичний керівник: Іван Давиденко
Звукорежисери: Альона Шиманович, Нікіта Бодаш, Олена Лапіна
Координатор проекту: Аліна Гаєвська
Ролі дублювали: Дарина Муращенко, В'ячеслав Костікоєв, Євген Шпаченко, Ірина Дорошенко,
Іван Розін, Павло Скороходько, Назар Задніпровський, Валентина Лонська, Валерій Шептекіта,
В'ячеслав Довженко, Олександр Ігнатуша, Марія Ніколенко, Віктор Григор'єв, Катерина Малюзіна та інші

Дубльовано LeDoyen Studio
Аудіо2:
мова: англійська
переклад: оригінал
кодек: 5.1
бітрейт: 448 кб/с

Субтитри:
мова: українська / англійська
тип: програмні (м'які)
формат: *.srt
Info
General
Unique ID : 197191042847217392999192723626442397814 (0x94599D08FDAB9C0CBD2F1A52AB289876)
Complete name : D:\The Lion King II Simba s Pride (1998) AVC [UKR_ENG sub ukr_eng] [Hurtom].
Format :
Format version : Version 2
File size : 2.04 GiB
Duration : 1 h 20 min
Overall bit rate : 3 605 kb/s
Movie name : The Lion King II: Simba's Pride (1998) AVC
Encoded date : UTC 2018-12-28 20:42:31
Writing application : v4.9.1 ('Ich will') зібрано Jul 11 2011 23:53:15
Writing library : libebml v1.2.1 + v1.1.1

Video
ID : 1
Format : AVC
Format/Info : Advanced Video Codec
Format profile : [email protected]
Format settings : CABAC / 10 Ref Frames
Format settings, CABAC : Yes
Format settings, RefFrames : 10 frames
Codec ID : V_MPEG4/ISO/AVC
Duration : 1 h 20 min
Bit rate : 2 893 kb/s
Width : 1 152 pixels
Height : 648 pixels
Display aspect ratio : 16:9
Frame rate mode : Constant
Frame rate : 23.976 (24000/1001) FPS
Color space : YUV
Chroma subsampling : 4:2:0
Bit depth : 8 bits
Scan type : Progressive
Bits/(Pixel*Frame) : 0.162
Stream size : 1.63 GiB (80%)
Title : The Lion King II: Simba's Pride (1998) AVC
Writing library : core 148 r2665+53 6629127 t_mod_Custom [[email protected] X86_64]
Encoding settings : cabac=1 / ref=10 / deblock=1:-1:-1 / analyse=0x3:0x113 / me=umh / subme=11 / psy=1 / fade_compensate=0.00 / psy_rd=0.50:0.00 / mixed_ref=1 / me_range=48 / chroma_me=1 / trellis=2 / 8x8dct=1 / cqm=0 / deadzone=21,11 / fast_pskip=0 / chroma_qp_offset=-2 / threads=6 / lookahead_threads=2 / sliced_threads=0 / nr=0 / decimate=1 / interlaced=0 / bluray_compat=0 / constrained_intra=0 / fgo=0 / bframes=13 / b_pyramid=2 / b_adapt=2 / b_bias=0 / direct=3 / weightb=1 / open_gop=0 / weightp=2 / keyint=240 / keyint_min=23 / scenecut=40 / intra_refresh=0 / rc_lookahead=60 / rc=crf / mbtree=1 / crf=19.1000 / qcomp=0.70 / qpmin=0:0:0 / qpmax=69:69:69 / qpstep=4 / vbv_maxrate=20000 / vbv_bufsize=25000 / crf_max=0.0 / nal_hrd=none / filler=0 / ip_ratio=1.40 / aq=3:0.50 / aq-sensitivity=10.00 / aq-factor=1.00:1.00:1.00 / aq2=0 / aq3=4:[0.50:0.50]:[0.50:0.50]:[0.50:0.50]:[0.50:0.50] / aq3-sensitivity=15.00 / aq3-factor=[1.00:1.00]:[1.00:1.00]:[1.00:1.00] / aq3-boundary=192:64:24 / zones=238,339,b=2.16/340,539,b=3.06/671,717,b=1.86/718,819,b=2.36/820,1025,b=2.26/1026,1133,b=2.26/1134,1301,b=1.76/1302,1519,b=1.96/1520,1532,b=1.76/1533,1683,b=1.86/1684,1841,b=2.06/1842,1895,b=2.34/1896,2089,b=1.74/2352,2491,b=1.84/2492,2571,b=1.94/2616,2689,b=2.64/2802,2851,b=1.64/2932,3183,b=2.64/3184,3597,b=1.74/3598,3889,b=2.04/3890,4221,b=1.74/4222,4768,b=1.94/4769,4945,b=1.74/4946,5074,b=1.24/5075,5104,b=2.14/5211,5453,b=1.74/5454,5777,b=2.64/5864,6077,b=2.94/6078,6539,b=1.94/6578,6839,b=2.34/6896,6987,b=2.34/7016,7155,b=1.74/7156,7845,b=1.94/7846,7997,b=2.34/8038,8574,b=2.54/9850,10670,b=1.76/11663,14509,b=1.42/14510,14687,b=1.72/ / 14688,15159,b=1.53/15160,15241,b=2.22/15242,15663,b=2.02/15664,15717,b=1.52/15718,16039,b=2.22/16040,16457,b=1.52/16458,16839,b=2.22/16840,16961,b=1.52/16962,17431,b=2.02/17432,17615,b=1.62/17616,17729,b=1.92/17730,17903,b=2.22/17904,18015,b=2.42/18016,18371,b=1.62/18372,18438,b=1.72/18439,18687,b=1.52/18688,18749,b=1.82/18750,19953,b=1.92/19954,20639,b=1.82/20640,20974,b=1.52/20975,22926,b=1.62/22927,23144,b=2.22/30021,30302,b=2.17/30303,30856,b=2.27/30903,31230,b=2.67/31231,32677,b=1.57/32678,32702,b=4.57/32703,33294,b=1.57/33438,33564,b=2.77/33565,33778,b=2.37/33779,33896,b=2.97/34402,34976,b=2.24/34977,35099,b=3.24/36016,37589,b=1.69/37599,37646,b=3.72/37647,38672,b=1.72/39903,40070,b=1.92/40195,40665,b=1.74/41210,43931,b=1.74/44190,44435,b=3.24/45215,45446,b=1.94/46029,46238,b=2.48/46283,46432,b=1.98/46433,46508,b=3.58/46539,46768,b=1.88/46769,46800,b=4.58/46801,47032,b=1.98/47033,47116,b=4.58/47117,47210,b=2.68/47211,47286,b=2.78/47287,47330,b=3.58/47331,47452,b=2.28/47453,47682,b=1.88/47683,47816,b=2.48/47817,48206,b=2.58/48207,49258,b=1.88/49259,49350,b=2.88/49351,50327,b=1.88/50328,50375,b=2.88/50376,50629,b=1.88/50630,51406,b=2.58/51407,51698,b=1.88/51699,51971,b=2.38/51972,52188,b=1.88/52370,56174,b=1.62/61151,69695,b=1.67/70181,77224,b=1.76/77886,80158,b=1.84/92784,95519,b=1.70/98517,98543,b=2.20/98544,99040,b=2.10/101034,103918,b=1.64/104676,106796,b=1.76/106797,106953,b=2.66/106954,107969,b=1.76/107970,108201,b=2.49/108384,116280,b=0.58
Language : English
Default : Yes
Forced : No

Audio #1
ID : 2
Format : AC-3
Format/Info : Audio Coding 3
Commercial name : Dolby Digital
Codec ID : A_AC3
Duration : 1 h 20 min
Bit rate mode : Constant
Bit rate : 192 kb/s
Channel(s) : 2 channels
Channel layout : L R
Sampling rate : 48.0 kHz
Frame rate : 31.250 FPS (1536 SPF)
Bit depth : 16 bits
Compression mode : Lossy
Stream size : 111 MiB (5%)
Title : українська LeDoyen Studio
Language : Ukrainian
Service kind : Complete Main
Default : Yes
Forced : Yes

Audio #2
ID : 3
Format : AC-3
Format/Info : Audio Coding 3
Commercial name : Dolby Digital
Codec ID : A_AC3
Duration : 1 h 20 min
Bit rate mode : Constant
Bit rate : 448 kb/s
Channel(s) : 6 channels
Channel layout : L R C LFE Ls Rs
Sampling rate : 48.0 kHz
Frame rate : 31.250 FPS (1536 SPF)
Bit depth : 16 bits
Compression mode : Lossy
Stream size : 259 MiB (12%)
Title : АС3 5.1 @ 448 kbps - Original
Language : English
Service kind : Complete Main
Default : No
Forced : No

Text #1
ID : 4
Format : UTF-8
Codec ID : S_TEXT/UTF8
Codec ID/Info : UTF-8 Plain Text
Language : Ukrainian
Default : No
Forced : No

Text #2
ID : 5
Format : UTF-8
Codec ID : S_TEXT/UTF8
Codec ID/Info : UTF-8 Plain Text
Title : Full
Language : English
Default : No
Forced : No

Menu
00:00:00.000 : :Chapter 01
00:03:33.129 : :Chapter 02
00:05:39.005 : :Chapter 03
00:09:16.054 : :Chapter 04
00:14:21.068 : :Chapter 05
00:19:09.690 : :Chapter 06
00:21:48.181 : :Chapter 07
00:26:53.902 : :Chapter 08
00:31:02.944 : :Chapter 09
00:33:00.478 : :Chapter 10
00:39:56.268 : :Chapter 11
00:44:47.101 : :Chapter 12
00:45:40.446 : :Chapter 13
00:50:37.951 : :Chapter 14
00:56:15.830 : :Chapter 15
00:59:51.546 : :Chapter 16
01:01:24.389 : :Chapter 17
01:05:01.439 : :Chapter 18
01:12:54.119 : :Chapter 19
01:15:20.515 : :Chapter 20
01:20:49.594 : :Chapter 21
Скріншоти






Король Лев 1½ / The Lion King 1½ (2004) AVC Ukr/Eng | sub Ukr/Eng
Король Лев 1½ / The Lion King 1½ (2004) AVC Ukr/Eng | sub Ukr/Eng

Король Лев. Трилогія / The Lion King. Trilogy (1994-1998-2004) AVC Ukr/Eng | Sub Ukr/Eng


Жанр: анімація, пригодницький, комедія
Країна: США, Австралія



Кінокомпанія: Disney Television Animation
Режисер: Бредлі Реймонд
Ролі озвучують: Метью Бродерік, Натан Лейн, Джері Стілер та інші

Сюжет:
Історія про знайомство Тімона та Пумби.


Тривалість: 01:16:14
Якість: AVC
Відео:
кодек:
розмір кадру: 1098 х 648
бітрейт: 3387 кб/с

Аудіо:
мова: українська
переклад: професійний дубльований
кодек: 2.0
бітрейт: 192 кб/с
Інформація про озвучення

Переклад: Роман Дяченко
Режисер дубляжу: Ольга Фокіна
Музичний керівник: Іван Давиденко
Звукорежисери: Альона Шиманович, Нікіта Бодаш, Олена Лапіна
Координатор проекту: Аліна Гаєвська
Ролі дублювали: Павло Скороходько, Назар Задніпровський, В'ячеслав Довженко, Валентина Лонська, Іван Розін, Валерій Шептекіта, Дмитро Зленко та інші

Дубльовано LeDoyen Studio
Аудіо2:
мова: англійська
переклад: оригінал
кодек: 5.1
бітрейт: 448 кб/с

Субтитри:
мова: українська / англійська
тип: програмні (м'які)
формат: *.srt
Info
General
Unique ID : 174866414238946702606941798094806445657 (0x838E0BDD44C36A0788AA4683768BEE59)
Complete name : D:\The Lion King 1 1_2 (2004) AVC [UKR_ENG sub ukr_eng] [Hurtom].
Format :
Format version : Version 2
File size : 2.19 GiB
Duration : 1 h 16 min
Overall bit rate : 4 109 kb/s
Movie name : The Lion King 1 1/2 / The Lion King 3: Hakuna Matata (2004) AVC
Encoded date : UTC 2018-12-28 20:48:49
Writing application : v4.9.1 ('Ich will') зібрано Jul 11 2011 23:53:15
Writing library : libebml v1.2.1 + v1.1.1

Video
ID : 1
Format : AVC
Format/Info : Advanced Video Codec
Format profile : [email protected]
Format settings : CABAC / 10 Ref Frames
Format settings, CABAC : Yes
Format settings, RefFrames : 10 frames
Codec ID : V_MPEG4/ISO/AVC
Duration : 1 h 16 min
Bit rate : 3 387 kb/s
Width : 1 098 pixels
Height : 648 pixels
Display aspect ratio : 5:3
Frame rate mode : Constant
Frame rate : 23.976 (24000/1001) FPS
Color space : YUV
Chroma subsampling : 4:2:0
Bit depth : 8 bits
Scan type : Progressive
Bits/(Pixel*Frame) : 0.199
Stream size : 1.80 GiB (82%)
Title : The Lion King 1 1/2 / The Lion King 3: Hakuna Matata (2004) AVC
Writing library : core 148 r2665+53 6629127 t_mod_Custom [[email protected] X86_64]
Encoding settings : cabac=1 / ref=10 / deblock=1:-1:-1 / analyse=0x3:0x113 / me=umh / subme=11 / psy=1 / fade_compensate=0.00 / psy_rd=0.50:0.00 / mixed_ref=1 / me_range=48 / chroma_me=1 / trellis=2 / 8x8dct=1 / cqm=0 / deadzone=21,11 / fast_pskip=0 / chroma_qp_offset=-2 / threads=6 / lookahead_threads=2 / sliced_threads=0 / nr=0 / decimate=0 / interlaced=0 / bluray_compat=0 / constrained_intra=0 / fgo=0 / bframes=15 / b_pyramid=2 / b_adapt=2 / b_bias=0 / direct=3 / weightb=1 / open_gop=0 / weightp=2 / keyint=240 / keyint_min=23 / scenecut=40 / intra_refresh=0 / rc_lookahead=60 / rc=crf / mbtree=1 / crf=20.0500 / qcomp=0.70 / qpmin=0:0:0 / qpmax=69:69:69 / qpstep=4 / vbv_maxrate=20000 / vbv_bufsize=25000 / crf_max=0.0 / nal_hrd=none / filler=0 / ip_ratio=1.40 / aq=3:0.50 / aq-sensitivity=10.00 / aq-factor=1.00:1.00:1.00 / aq2=0 / aq3=4:[0.50:0.50]:[0.50:0.50]:[0.50:0.50]:[0.50:0.50] / aq3-sensitivity=15.00 / aq3-factor=[1.00:1.00]:[1.00:1.00]:[1.00:1.00] / aq3-boundary=192:64:24 / zones=78,302,crf=5.6/353,377,crf=7.2/564,902,crf=2.5/904,1181,b=1.66/2619,2781,crf=9.2/9040,9295,crf=8.2/9309,9378,b=2.12/9740,10735,b=2.34/10736,10826,b=2.39/10828,10966,b=1.54/11006,11270,b=1.89/11375,11449,b=2.17/15367,15637,b=2.22/15706,15765,b=3.62/16142,16213,b=2.39/16214,16269,b=2.23/16311,16400,b=2.27/16434,16510,b=1.99/16911,16932,b=2.29/17217,17348,b=1.99/17586,17624,b=1.89/18201,18542,b=1.79/ / 19127,19426,b=2.28/19446,19542,b=2.40/22038,22359,b=2.44/23506,23698,crf=3.4/24182,24468,b=1.49/24576,24686,b=1.99/25559,25707,b=1.79/25734,26083,b=1.79/26084,26487,b=2.24/26580,26629,b=2.14/26915,26985,b=2.03/27098,27121,b=1.93/27155,27447,b=1.93/28554,28675,b=3.39/28676,30527,b=2.89/30609,31047,b=3.59/31137,31627,b=2.39/31740,32059,b=1.89/32486,32935,b=2.09/32935,33218,b=2.19/33806,33941,b=2.39/ / 33995,34171,b=2.29/34246,34444,b=3.39/34810,35071,b=1.49/35503,35712,b=1.99/35714,35792,b=1.88/35793,35894,b=2.49/35896,36120,b=1.68/36121,36852,b=1.99/36853,36931,b=1.67/36935,36960,b=1.99/36961,37082,b=1.99/37152,37770,b=2.29/38528,38843,b=2.49/39244,39355,crf=3.5/39732,40375,b=2.39/41106,41168,b=2.29/41406,41785,b=2.69/41850,42179,b=3.67/42277,42439,b=2.71/42916,43179,crf=8.7/43978,44248,b=1.68/ / 44322,44534,b=2.78/44682,45108,b=1.48/45291,45318,crf=0.1/45319,45398,crf=2.6/45399,45530,crf=6.78/45531,45651,crf=9.2/45693,45773,crf=7.1/45905,46052,crf=7.9/46160,46493,crf=11.9/46608,47307,b=2.75/49313,49403,crf=9.9/49572,50061,crf=10.3/ / 50128,50377,crf=10.2/50434,51495,crf=10.2/52606,52979,b=2.39/52981,53124,crf=10.0/53125,53650,b=3.11/53778,53964,b=2.29/54075,54472,b=2.29/54473,54874,b=2.39/54875,55006,b=3.69/55065,55364,b=1.59/55403,55527,b=1.59/55528,55784,b=2.49/56439,56959,b=2.49/57046,57289,b=2.38/57351,58071,b=2.28/59839,59985,b=2.38/59986,60175,b=2.68/60176,60393,b=2.48/60708,60807,b=2.58/60862,61040,b=2.98/60941,61044,b=2.68/61385,61516,b=2.38/61692,63285,b=2.38/64348,65526,b=2.29/66425,66954,b=2.23/67889,68022,b=2.23/68082,68161,b=1.83/68162,68752,b=2.03/68837,69049,b=2.03/69050,70633,b=2.63/70637,70640,crf=1.1/70641,70698,crf=6.8/70714,70844,b=1.63/70867,71209,b=2.93/71210,71261,b=3.13/71262,72153,b=2.03/72154,72356,b=2.13/72357,73133,b=2.23/73134,73485,b=2.23/73486,73585,b=2.57/73586,73641,b=1.69/73642,74273,b=1.95/74445,74517,b=3.45/74606,74683,b=3.05/74684,74739,b=2.05/74740,75015,b=2.17/75087,75109,b=2.87/75249,75457,b=2.27/75495,75715,b=2.17/75716,75867,b=2.17/75868,76079,b=2.17/76080,76983,b=2.37/77407,77645,b=1.89/77646,77869,b=2.27/77870,77973,b=1.97/77974,78083,b=2.47/78084,78362,b=2.17/78368,78939,b=2.37/78940,79113,b=2.09/79114,79177,b=2.67/79178,79225,b=1.77/79226,79321,b=2.17/79322,79473,b=2.67/79474,79651,b=2.77/79652,79791,b=2.27/79950,80043,b=3.27/80044,80107,b=2.28/80108,80307,b=2.18/80308,80743,b=2.38/80744,81005,b=1.98/81006,81401,crf=9.0/81402,81413,b=2.18/81414,81541,crf=9.0/81542,81645,b=1.68/81646,81693,crf=8.2/81694,81739,b=1.89/81740,81779,crf=9.0/81780,81835,b=2.07/81836,81917,crf=9.2/81918,82065,b=1.89/82066,82252,b=1.48/82340,83157,b=1.62/83297,83475,b=1.96/83476,83995,b=2.46/83996,84061,b=1.91/84062,84605,b=2.48/84606,84943,b=2.58/85116,85388,b=2.48/85389,85581,b=2.08/85656,85699,b=3.48/85942,86187,b=2.68/86428,86603,b=2.49/ / 86617,86658,b=1.98/86894,86922,b=1.98/86923,87151,b=2.15/87171,87461,b=3.48/87471,87677,b=2.88/87678,87739,b=2.08/87740,87775,b=2.28/87776,88219,b=2.18/88240,88527,b=2.48/88528,88607,b=1.94/88608,88981,b=2.34/88982,89063,b=2.75/89064,89113,b=2.44/89114,89411,b=2.44/89488,90067,crf=7.6/90068,90296,crf=8.4/90313,90390,b=2.44/90871,91551,b=2.24/91743,92653,b=3.24/93010,94135,b=2.84/94378,95381,b=2.34/95780,96210,b=2.54/96326,96532,b=2.64/96650,96690,crf=2.0/96691,96748,crf=0.01/96749,97471,b=1.96/101117,101207,crf=5.77/101208,103127,b=0.85/103128,109297,b=0.45/109298,109649,b=2.555
Language : English
Default : Yes
Forced : No

Audio #1
ID : 2
Format : AC-3
Format/Info : Audio Coding 3
Commercial name : Dolby Digital
Codec ID : A_AC3
Duration : 1 h 16 min
Bit rate mode : Constant
Bit rate : 192 kb/s
Channel(s) : 2 channels
Channel layout : L R
Sampling rate : 48.0 kHz
Frame rate : 31.250 FPS (1536 SPF)
Bit depth : 16 bits
Compression mode : Lossy
Stream size : 105 MiB (5%)
Title : українська LeDoyen Studio
Language : Ukrainian
Service kind : Complete Main
Default : Yes
Forced : Yes

Audio #2
ID : 3
Format : AC-3
Format/Info : Audio Coding 3
Commercial name : Dolby Digital
Codec ID : A_AC3
Duration : 1 h 16 min
Bit rate mode : Constant
Bit rate : 448 kb/s
Channel(s) : 6 channels
Channel layout : L R C LFE Ls Rs
Sampling rate : 48.0 kHz
Frame rate : 31.250 FPS (1536 SPF)
Bit depth : 16 bits
Compression mode : Lossy
Stream size : 244 MiB (11%)
Title : АС3 5.1 @ 448 kbps - Original
Language : English
Service kind : Complete Main
Default : No
Forced : No

Text #1
ID : 4
Format : UTF-8
Codec ID : S_TEXT/UTF8
Codec ID/Info : UTF-8 Plain Text
Title : українська
Language : Ukrainian
Default : No
Forced : No

Text #2
ID : 5
Format : UTF-8
Codec ID : S_TEXT/UTF8
Codec ID/Info : UTF-8 Plain Text
Title : Full
Language : English
Default : No
Forced : No

Menu
00:00:00.000 : :Chapter 01
00:01:56.115 : :Chapter 02
00:08:22.542 : :Chapter 03
00:12:28.164 : :Chapter 04
00:17:00.686 : :Chapter 05
00:22:34.519 : :Chapter 06
00:29:19.466 : :Chapter 07
00:34:20.558 : :Chapter 08
00:38:19.005 : :Chapter 09
00:40:22.169 : :Chapter 10
00:45:33.021 : :Chapter 11
00:50:09.422 : :Chapter 12
00:54:52.455 : :Chapter 13
00:59:02.872 : :Chapter 14
01:06:18.432 : :Chapter 15
01:10:25.012 : :Chapter 16
01:16:14.361 : :Chapter 17
Скріншоти






Джерело:

Подяка:
w2958l за українські субтитри


Срібний реліз (на рейтинг впливає 50% завантаженого)
 Трекер:    Зареєстрований   

Завантажити / скачати мультфільм українською



відео для новачків



 Зареєстрований:   2018-12-29 01:16
 Розмір:   6.17 GB 
 Оцінка мультфільму:   10/10 (Голосів: 31)
   
andros507 
VIP


З нами з: 15.09.10
Востаннє: 25.04.19
Повідомлень: 295

2018-12-29 03:53  
Ем, неочікувано, втім велика подяка за цей реліз.
andrew.tsaruk 
Новенький


З нами з: 05.06.16
Востаннє: 24.04.19
Повідомлень: 3

2018-12-29 16:59  
ААА....А Супер!!!
игорь 25 
Свій


З нами з: 02.10.17
Востаннє: 25.04.19
Повідомлень: 70

2018-12-29 23:22  
Оце так подарунок. Дякую
olimpian1 
Поважний учасник


З нами з: 19.10.13
Востаннє: 25.04.19
Повідомлень: 153

2018-12-30 20:53  
Просто супер!! Велике дякую!
Cobretti 
Новенький


З нами з: 30.03.10
Востаннє: 23.04.19
Повідомлень: 13

2019-01-01 23:54  
дякую за Новорічний подарунок, думав другу частину ніколи не побачимо в нормальному перекладі, діти у захваті
Ваш часовий пояс: GMT + 2 Години

Нова тема   Відповісти