Повернення до Бургундії / Ce qui nous lie (2017) 1080p Ukr/Fre

Нові коментарі

Нова тема   Відповісти
Автор Повідомлення
staf777 
Відео Гуртом - підтримка та поширення
Відео Гуртом - підтримка та поширення


З нами з: 16.11.16
Востаннє: 22.05.19
Повідомлень: 2373

2018-12-28 19:09  
Повернення до Бургундії / Ce qui nous lie (2017) 1080p Ukr/Fre

Повернення до Бургундії / Ce qui nous lie (2017) 1080p Ukr/Fre


Жанр: комедія, драма
Країна: Франція



Кінокомпанія: Ce Qui Me Meut Motion Pictures, StudioCanal, France 2 Cinéma
Режисер: Седрік Клапіш
Актори: Піо Мармай, Ана Жирардо, Марія Вальверде, Жан-Марі Вінлін, Ерік Каравака, Седрік Клапіш та інші.

Сюжет:
Троє спадкоємців після смерті батька повинні відновити маєток та повернути виноградникам колишню славу. Вони будуть сваритися і миритися, збирати виноград та робити вино. І звичайно ж пити, насолоджуючись кожною краплею.


Тривалість: 01:53:25
Якість: 1080p
Відео:
кодек:
розмір кадру: 1920x804
бітрейт: 9005 кб/с

Аудіо # 1:
мова: українська
переклад: багатоголосий закадровий
кодек: 2.0
бітрейт: 192 кб/с

Аудіо # 2:
мова: французька
переклад: оригінал
кодек: 5.1
бітрейт: 384 кб/с

Субтитри: [Forced]
мова: французька
тип: програмні (м'які)
формат: *.srt
Info
General
Unique ID : 258410281731349616247586690939630981969 (0xC268028C3D7A3B8008C593E681211351)
Complete name : P:\HD українською » Фільми в HD\Драма\Ce qui nous lie (2017) 1080p [UKR][FRE][Hurtom].
Format :
Format version : Version 4 / Version 2
File size : 7.59 GiB
Duration : 1 h 53 min
Overall bit rate : 9 579 kb/s
Movie name : Ce qui nous lie (2017) 1080p [UKR][FRE][Hurtom]
Encoded date : UTC 2018-12-28 20:16:06
Writing application : v24.0.0 ('Beyond The Pale') 64-bit
Writing library : libebml v1.3.6 + v1.4.9
Cover : Yes
Attachments : cover.jpg

Video
ID : 1
Format : AVC
Format/Info : Advanced Video Codec
Format profile : [email protected]
Format settings : CABAC / 5 Ref Frames
Format settings, CABAC : Yes
Format settings, ReFrames : 5 frames
Codec ID : V_MPEG4/ISO/AVC
Duration : 1 h 53 min
Bit rate : 9 005 kb/s
Width : 1 920 pixels
Height : 804 pixels
Display aspect ratio : 2.40:1
Original display aspect rat : 2.40:1
Frame rate mode : Constant
Frame rate : 24.000 FPS
Color space : YUV
Chroma subsampling : 4:2:0
Bit depth : 8 bits
Scan type : Progressive
Bits/(Pixel*Frame) : 0.243
Stream size : 7.13 GiB (94%)
Title : Ce qui nous lie
Writing library : core 152 r2851kMod ba24899
Encoding settings : cabac=1 / ref=5 / deblock=1:0:0 / analyse=0x3:0x133 / me=umh / subme=10 / psy=1 / fade_compensate=0.00 / psy_rd=1.00:0.00 / mixed_ref=1 / me_range=24 / chroma_me=1 / trellis=2 / 8x8dct=1 / cqm=0 / deadzone=21,11 / fast_pskip=1 / chroma_qp_offset=-2 / threads=7 / lookahead_threads=1 / sliced_threads=0 / slices=4 / nr=0 / decimate=1 / interlaced=0 / bluray_compat=0 / constrained_intra=0 / bframes=8 / b_pyramid=2 / b_adapt=2 / b_bias=0 / direct=3 / weightb=1 / open_gop=0 / weightp=2 / keyint=240 / keyint_min=25 / scenecut=40 / intra_refresh=0 / rc_lookahead=60 / rc=2pass / mbtree=1 / bitrate=9005 / ratetol=1.0 / qcomp=0.60 / qpmin=0 / qpmax=69 / qpstep=4 / cplxblur=20.0 / qblur=0.5 / ip_ratio=1.40 / aq=1:1.00
Language : French
Default : Yes
Forced : No

Audio #1
ID : 2
Format : AC-3
Format/Info : Audio Coding 3
Codec ID : A_AC3
Duration : 1 h 53 min
Bit rate mode : Constant
Bit rate : 192 kb/s
Channel(s) : 2 channels
Channel positions : Front: L R
Sampling rate : 48.0 kHz
Frame rate : 31.250 FPS (1536 SPF)
Bit depth : 16 bits
Compression mode : Lossy
Stream size : 156 MiB (2%)
Title : MVO [Kyiv], 2.0 192 Kbps
Language : Ukrainian
Service kind : Complete Main
Default : Yes
Forced : Yes

Audio #2
ID : 3
Format : AC-3
Format/Info : Audio Coding 3
Codec ID : A_AC3
Duration : 1 h 53 min
Bit rate mode : Constant
Bit rate : 384 kb/s
Channel(s) : 6 channels
Channel positions : Front: L C R, Side: L R, LFE
Sampling rate : 48.0 kHz
Frame rate : 31.250 FPS (1536 SPF)
Bit depth : 16 bits
Compression mode : Lossy
Stream size : 312 MiB (4%)
Title : Original
Language : French
Service kind : Complete Main
Default : No
Forced : No

Text
ID : 4
Format : UTF-8
Codec ID : S_TEXT/UTF8
Codec ID/Info : UTF-8 Plain Text
Duration : 1 h 38 min
Bit rate : 4 b/s
Count of elements : 141
Stream size : 3.52 KiB (0%)
Title : forsed
Language : French
Default : No
Forced : No

Menu
00:00:00.000 : en:00:00:00
00:06:45.707 : en:00:06:45
00:17:31.750 : en:00:17:31
00:24:44.000 : en:00:24:44
00:35:23.832 : en:00:35:23
00:45:39.582 : en:00:45:39
00:54:28.832 : en:00:54:28
01:03:56.000 : en:01:03:56
01:12:22.500 : en:01:12:22
01:21:56.832 : en:01:21:56
01:30:02.625 : en:01:30:02
01:39:38.625 : en:01:39:38
Скріншоти





Запис з ТБ - Петров Микола Синхронізація Sando7
Джерело: &
Особиста оцінка: 8 - мені сподобалося
Повернення до Бургундії / Ce qui nous lie (2017) 1080p Ukr/Fre Повернення до Бургундії / Ce qui nous lie (2017) 1080p Ukr/Fre


 Трекер:    Зареєстрований   

Завантажити / скачати фільм українською



відео для новачків



 Зареєстрований:   2018-12-28 23:29
 Розмір:   7.59 GB 
 Оцінка фільму:   8.6/10 (Голосів: 15)
   
Інші релізи
bot 
робот


З нами з: 30.09.07
Востаннє: 26.05.05
Повідомлень: 21366

2018-12-28 19:13  
Тему перенесено з Фільми в HD до форуму Анонси релізів


staf777

bot 
робот


З нами з: 30.09.07
Востаннє: 26.05.05
Повідомлень: 21366

2018-12-28 23:29  
Тему перенесено з Анонси релізів до форуму Фільми в HD


staf777

Oleksa9 
VIP


З нами з: 17.05.12
Востаннє: 22.05.19
Повідомлень: 349

2019-02-11 08:32  
пройшло 10 років -> минуло 10 років
більш м'ясистим/кислим -> м'ясистішим, кислішим
черв'як -> хробак
не усі імена відмінювалися за звертання

hetzendorf 
Відео Гуртом - підтримка та поширення
Відео Гуртом - підтримка та поширення


З нами з: 23.07.15
Востаннє: 22.05.19
Повідомлень: 2160

2019-05-19 20:42  
Переклад оригінальної назви: Що нас пов'язує
hetzendorf 
Відео Гуртом - підтримка та поширення
Відео Гуртом - підтримка та поширення


З нами з: 23.07.15
Востаннє: 22.05.19
Повідомлень: 2160

2019-05-20 00:19  
Ідея прописана в оригінальній назви, проте самим фільмом чітко не сформульована й толком не розкрита, лише частково озвучена парочкою фраз Жана. Фільм загалом нудний і розтягнутий. Комедійної складової я там упритул не побачив.
Цитата:
Троє спадкоємців після смерті батька повинні відновити маєток та повернути виноградникам колишню славу.

Як пафосно! Проте насправді таких завдань ніхто не ставить, натомість брати з сестрою мають проблему — сплатити півмільйону ойро податку на спадщину — і працюють над її розв'язанням.
2/10

Ваш часовий пояс: GMT + 2 Години

Нова тема   Відповісти