Звідки ти знаєш / How Do You Know (2010) 1080p 2xUkr/Eng | Sub Eng

Нові коментарі

Нова тема   Відповісти
Автор Повідомлення
staf777 
Відео Гуртом - підтримка та поширення
Відео Гуртом - підтримка та поширення


З нами з: 16.11.16
Востаннє: 10.08.20
Повідомлень: 3934

2018-12-28 15:18  
Звідки ти знаєш / How Do You Know (2010) 1080p 2xUkr/Eng | Sub Eng

Звідки ти знаєш / How Do You Know (2010) 1080p 2xUkr/Eng | Sub Eng


Жанр: мелодрама, комедія
Країна: США



Кінокомпанія: Columbia Pictures Corporation
Режисер: Джеймс Л. Брукс
Актори: Різ Уізерспун , Пол Радд , Оуен Вілсон , Кетрін Хан , Шеллі Конн , Марк Лінн-Бейкер , Джек Ніколсон

Сюжет:
Найприродніше і найважливіше питання, яке ми багато разів ставимо одне одному і самим собі - звідки ти знаєш? Звідки ти знаєш, що це справжні почуття, як упізнати справжню любов, як відчути, що людини поруч - та, яку ти шукаєш? Любовний трикутник змусив Лізу спитати про це саму себе і шукати життєво важливі відповіді. Двоє чоловіків боротимуться за її прихильність, тож її відповіді для них не менш важливі.


Тривалість: 02:00:45
Якість: 1080p
Відео:
кодек:
розмір кадру: 1920x1040
бітрейт: 13.5 Mб/с

Аудіо # 1:
мова: українська
переклад: професійний дубльований
кодек: 5.1
бітрейт: 640 кб/с

Аудіо # 2:
мова: українська
переклад: багатоголосий закадровий
кодек: 2.0
бітрейт: 192 кб/с

Аудіо # 3:
мова: англійська
переклад: оригінал
кодек: 5.1
бітрейт: 1509 кб/с

Субтитри:
мова: англійська
тип: програмні (м'які)
формат: *.srt




MI
General
Unique ID : 72753733668157526456591455897976110462 (0x36BBDC0331DA6035718ECBDF5F0CFD7E)
Complete name : P:\HD українською » Фільми в HD\Комедія\How Do You Know (2010) 1080p [2xUkr][Eng][Hurtom].
Format :
Format version : Version 4 / Version 2
File size : 13.4 GiB
Duration : 2 h 0 min
Overall bit rate : 15.8 Mb/s
Movie name : How Do You Know (2010) 1080p [2xUkr][Eng][Hurtom]
Encoded date : UTC 2018-12-29 15:45:26
Writing application : v24.0.0 ('Beyond The Pale') 64-bit
Writing library : libebml v1.3.6 + v1.4.9
Cover : Yes
Attachments : cover.jpg

Video
ID : 1
Format : AVC
Format/Info : Advanced Video Codec
Format profile : [email protected]
Format settings : CABAC / 5 Ref Frames
Format settings, CABAC : Yes
Format settings, ReFrames : 5 frames
Codec ID : V_MPEG4/ISO/AVC
Duration : 2 h 0 min
Bit rate : 13.5 Mb/s
Width : 1 920 pixels
Height : 1 040 pixels
Display aspect ratio : 1.85:1
Frame rate mode : Constant
Frame rate : 23.976 (24000/1001) FPS
Color space : YUV
Chroma subsampling : 4:2:0
Bit depth : 8 bits
Scan type : Progressive
Bits/(Pixel*Frame) : 0.282
Stream size : 11.4 GiB (85%)
Title : Release for HDCLUB
Writing library : core 114 r1900 60ef1f8
Encoding settings : cabac=1 / ref=5 / deblock=1:-3:-3 / analyse=0x3:0x113 / me=esa / subme=9 / psy=1 / psy_rd=1.10:0.10 / mixed_ref=1 / me_range=32 / chroma_me=1 / trellis=1 / 8x8dct=1 / cqm=0 / deadzone=21,11 / fast_pskip=0 / chroma_qp_offset=-3 / threads=18 / sliced_threads=0 / nr=0 / decimate=0 / interlaced=0 / constrained_intra=0 / bframes=6 / b_pyramid=2 / b_adapt=1 / b_bias=0 / direct=1 / weightb=1 / open_gop=0 / weightp=2 / keyint=250 / keyint_min=23 / scenecut=40 / intra_refresh=0 / rc_lookahead=40 / rc=2pass / mbtree=1 / bitrate=13500 / ratetol=1.0 / qcomp=0.60 / qpmin=0 / qpmax=69 / qpstep=4 / cplxblur=20.0 / qblur=0.5 / ip_ratio=1.40 / aq=1:0.80
Language : English
Default : Yes
Forced : No

Audio #1
ID : 2
Format : AC-3
Format/Info : Audio Coding 3
Codec ID : A_AC3
Duration : 2 h 0 min
Bit rate mode : Constant
Bit rate : 640 kb/s
Channel(s) : 6 channels
Channel positions : Front: L C R, Side: L R, LFE
Sampling rate : 48.0 kHz
Frame rate : 31.250 FPS (1536 SPF)
Bit depth : 16 bits
Compression mode : Lossy
Stream size : 553 MiB (4%)
Title : 5.1 640 Kbps [Дубляж, Blu-Ray]
Language : Ukrainian
Service kind : Complete Main
Default : Yes
Forced : Yes

Audio #2
ID : 3
Format : AC-3
Format/Info : Audio Coding 3
Codec ID : A_AC3
Duration : 2 h 0 min
Bit rate mode : Constant
Bit rate : 192 kb/s
Channel(s) : 2 channels
Channel positions : Front: L R
Sampling rate : 48.0 kHz
Frame rate : 31.250 FPS (1536 SPF)
Bit depth : 16 bits
Compression mode : Lossy
Stream size : 166 MiB (1%)
Title : [Ukr-Mvo]
Language : Ukrainian
Service kind : Complete Main
Default : No
Forced : No

Audio #3
ID : 4
Format :
Format/Info : Digital Theater Systems
Codec ID : A_DTS
Duration : 2 h 0 min
Bit rate mode : Constant
Bit rate : 1 509 kb/s
Channel(s) : 6 channels
Channel positions : Front: L C R, Side: L R, LFE
Sampling rate : 48.0 kHz
Frame rate : 93.750 FPS (512 SPF)
Bit depth : 24 bits
Compression mode : Lossy
Delay relative to video : 11 ms
Stream size : 1.27 GiB (10%)
Title : 5.1 1536 Kbps
Language : English
Default : No
Forced : No

Text
ID : 5
Format : UTF-8
Codec ID : S_TEXT/UTF8
Codec ID/Info : UTF-8 Plain Text
Duration : 1 h 59 min
Bit rate : 62 b/s
Count of elements : 1629
Stream size : 54.9 KiB (0%)
Language : English
Default : No
Forced : No

Menu
00:00:00.000 : en:00:00:00.000
00:13:08.538 : en:00:13:08.538
00:22:02.613 : en:00:22:02.613
00:28:17.362 : en:00:28:17.362
00:34:48.962 : en:00:34:48.962
00:40:20.752 : en:00:40:20.752
00:46:54.729 : en:00:46:54.729
00:55:34.706 : en:00:55:34.706
01:00:48.728 : en:01:00:48.728
01:04:13.558 : en:01:04:13.558
01:14:12.198 : en:01:14:12.198
01:23:49.441 : en:01:23:49.441
01:29:15.558 : en:01:29:15.558
01:38:15.890 : en:01:38:15.890
01:45:03.213 : en:01:45:03.213
01:52:12.809 : en:01:52:12.809

Джерело: &
Особиста оцінка: 0 - не дивився
Дякую пану Neytreenor за доріжку від
ЗАЛИШАЙТЕСЬ ЯКОМОГА ДОВШЕ НА РОЗДАЧІ!

СКАЧАВ САМ - ДАЙ СКАЧАТИ ІНШИМ



 Трекер:    Зареєстрований   

Завантажити / скачати фільм українською



відео для новачків



 Зареєстрований:   2018-12-29 19:24
 Розмір:   13.36 GB 
 Оцінка фільму:   7.8/10 (Голосів: 4)
   
Інші релізи
bot 
робот


З нами з: 30.09.07
Востаннє: 26.05.05
Повідомлень: 25217

2018-12-29 19:23  
Тему перенесено з Анонси релізів до форуму Фільми в HD


staf777

Ваш часовий пояс: GMT + 2 Години

Нова тема   Відповісти