Пам’ятай мене / Remember Me (2010) AVC 2xUkr/Eng | Sub Eng

Нові коментарі

Нова тема   Відповісти
Автор Повідомлення
staf777 
Відео Гуртом - підтримка та поширення
Відео Гуртом - підтримка та поширення


З нами з: 16.11.16
Востаннє: 18.10.19
Повідомлень: 2989

2018-12-28 14:36  
Пам’ятай мене / Remember Me (2010) AVC 2xUkr/Eng | Sub Eng

Пам’ятай мене / Remember Me (2010) AVC 2xUkr/Eng | Sub Eng


Жанр: драма, мелодрама
Країна: США



Кінокомпанія: Summit Entertainment
Режисер: Аллен Култер / Allen Coulter
Актори: Роберт Паттінсон / Robert Pattinson, Кайтлін Ранд / Caitlyn Rund, Моісес Акеведо / Moises Acevedo, Емілі де Равін / Emilie de Ravin, Ноель Родрігез / Noel Rodriguez, Кевін П. МакКарті / Kevin P. McCarthy, Кріс Купер / Chris Cooper, Атена Куррі / Athena Currey, Лена Олін / Lena Olin, Ґреґорі Джбара / Gregory Jbara, Рубі Джерінс / Ruby Jerins, Пірс Броснан / Pierce Brosnan, Енджела Піетропінто / Angela Pietropinto, Тейт Еллінгтон / Tate Ellington, Девід Деблінгер / David Deblinger

Сюжет:
Головний герой - Тайлер - у переддень свого 22-річчя усе ще не визначився зі своїм життям: навколишній світ його пригноблює, з батьком стосунки стають дедалі гіршими, мати і вітчим не здатні його зрозуміти. Колись забезпечене і безтурботне життя Тайлера назавжди змінилося після самогубства старшого брата. Єдині справді близькі для нього люди - сусід по помешканню Айдан та 11-річна сестра.

Одного разу - після чергової спроби відволіктися від нав'язливих думок у якомусь генделику - Тайлер вплутується в бійку, внаслідок чого вони з Айданом потрапляють під арешт, а Тайлеру до того ж дуже дістається від одного з поліцейських. Коли Айдан дізнається, що у цього поліцейського є дочка Еллі, він примушує Тайлера познайомиться з нею, щоб провчити "рукатого" татуся. Проте це знайомство несподівано переростає в сильне почуття.


Тривалість: 01:52:19
Якість: AVC
Відео:
кодек:
розмір кадру: 1024х576
бітрейт: 1600 кб/с

Аудіо # 1:
мова: українська
переклад: багатоголосий закадровий
кодек: 2.0
бітрейт: 192 кб/с

Аудіо # 2:
мова: українська
переклад: багатоголосий закадровий
кодек: 2.0
бітрейт: 192 кб/с

Аудіо # 3:
мова: англійська
переклад: оригінал
кодек: 5.1
бітрейт: 448 кб/с

Субтитри:
мова: англійська
тип: програмні (м'які)
формат: *.srt
MI
General
Unique ID : 210929718464445496581512233912537607997 (0x9EAF960A5581B2A762E4F000A7AA6F3D)
Complete name : L:\Фільми AVC\Драма\Remember Me (2010) AVC [2xUkr][Eng][Hurtom].
Format :
Format version : Version 4 / Version 2
File size : 1.91 GiB
Duration : 1 h 52 min
Overall bit rate : 2 433 kb/s
Movie name : Remember Me (2010) AVC [2xUkr][Eng][Hurtom]
Encoded date : UTC 2018-12-27 20:48:16
Writing application : v24.0.0 ('Beyond The Pale') 64-bit
Writing library : libebml v1.3.6 + v1.4.9
Cover : Yes
Attachments : cover.jpg

Video
ID : 1
Format : AVC
Format/Info : Advanced Video Codec
Format profile : [email protected]
Format settings : CABAC / 8 Ref Frames
Format settings, CABAC : Yes
Format settings, ReFrames : 8 frames
Codec ID : V_MPEG4/ISO/AVC
Duration : 1 h 52 min
Bit rate : 1 600 kb/s
Width : 1 024 pixels
Height : 576 pixels
Display aspect ratio : 16:9
Frame rate mode : Constant
Frame rate : 23.976 (24000/1001) FPS
Color space : YUV
Chroma subsampling : 4:2:0
Bit depth : 8 bits
Scan type : Progressive
Bits/(Pixel*Frame) : 0.113
Stream size : 1.25 GiB (66%)
Title : Rip by Enigma-Vladislav71
Writing library : core 142 r2431 ac76440
Encoding settings : cabac=1 / ref=8 / deblock=1:-2:-2 / analyse=0x3:0x133 / me=umh / subme=11 / psy=1 / psy_rd=1.00:0.00 / mixed_ref=1 / me_range=48 / chroma_me=1 / trellis=2 / 8x8dct=1 / cqm=0 / deadzone=21,11 / fast_pskip=0 / chroma_qp_offset=-2 / threads=3 / lookahead_threads=1 / sliced_threads=0 / nr=0 / decimate=0 / interlaced=0 / bluray_compat=0 / constrained_intra=0 / bframes=8 / b_pyramid=2 / b_adapt=2 / b_bias=0 / direct=3 / weightb=1 / open_gop=0 / weightp=2 / keyint=240 / keyint_min=23 / scenecut=40 / intra_refresh=0 / rc_lookahead=40 / rc=2pass / mbtree=0 / bitrate=1600 / ratetol=1.0 / qcomp=0.60 / qpmin=10 / qpmax=51 / qpstep=4 / cplxblur=20.0 / qblur=0.5 / vbv_maxrate=62500 / vbv_bufsize=78125 / nal_hrd=none / filler=0 / ip_ratio=1.40 / pb_ratio=1.30 / aq=2:1.00
Language : English
Default : No
Forced : No

Audio #1
ID : 2
Format : AC-3
Format/Info : Audio Coding 3
Codec ID : A_AC3
Duration : 1 h 52 min
Bit rate mode : Constant
Bit rate : 192 kb/s
Channel(s) : 2 channels
Channel positions : Front: L R
Sampling rate : 48.0 kHz
Frame rate : 31.250 FPS (1536 SPF)
Bit depth : 16 bits
Compression mode : Lossy
Stream size : 154 MiB (8%)
Title : [Ukr-Mvo]
Language : Ukrainian
Service kind : Complete Main
Default : Yes
Forced : Yes

Audio #2
ID : 3
Format : AC-3
Format/Info : Audio Coding 3
Codec ID : A_AC3
Duration : 1 h 52 min
Bit rate mode : Constant
Bit rate : 192 kb/s
Channel(s) : 2 channels
Channel positions : Front: L R
Sampling rate : 48.0 kHz
Frame rate : 31.250 FPS (1536 SPF)
Bit depth : 16 bits
Compression mode : Lossy
Stream size : 154 MiB (8%)
Title : [Ukr-Mvo-K1]
Language : Ukrainian
Service kind : Complete Main
Default : No
Forced : No

Audio #3
ID : 4
Format : AC-3
Format/Info : Audio Coding 3
Codec ID : A_AC3
Duration : 1 h 52 min
Bit rate mode : Constant
Bit rate : 448 kb/s
Channel(s) : 6 channels
Channel positions : Front: L C R, Side: L R, LFE
Sampling rate : 48.0 kHz
Frame rate : 31.250 FPS (1536 SPF)
Bit depth : 16 bits
Compression mode : Lossy
Stream size : 360 MiB (18%)
Language : English
Service kind : Complete Main
Default : No
Forced : No

Text
ID : 5
Format : UTF-8
Codec ID : S_TEXT/UTF8
Codec ID/Info : UTF-8 Plain Text
Duration : 1 h 42 min
Bit rate : 53 b/s
Count of elements : 1176
Stream size : 40.0 KiB (0%)
Language : English
Default : No
Forced : No

Menu
00:00:00.000 : en:Chapter 01
00:04:20.885 : en:Chapter 02
00:10:53.194 : en:Chapter 03
00:15:11.285 : en:Chapter 04
00:20:56.129 : en:Chapter 05
00:25:34.991 : en:Chapter 06
00:32:24.567 : en:Chapter 07
00:37:39.757 : en:Chapter 08
00:45:54.835 : en:Chapter 09
00:52:15.257 : en:Chapter 10
00:59:22.934 : en:Chapter 11
01:05:45.900 : en:Chapter 12
01:11:23.362 : en:Chapter 13
01:17:38.528 : en:Chapter 14
01:25:45.932 : en:Chapter 15
01:32:39.595 : en:Chapter 16
01:39:22.665 : en:Chapter 17
01:44:01.193 : en:Chapter 18





MAKAPOHHIK запис Аудіо #1 xslim запис Аудіо #2 karvai0 синхронізація
Джерело:
Пам’ятай мене / Remember Me (2010) AVC 2xUkr/Eng | Sub Eng Пам’ятай мене / Remember Me (2010) AVC 2xUkr/Eng | Sub Eng


 Трекер:    Зареєстрований   

Завантажити / скачати фільм українською



відео для новачків



 Зареєстрований:   2018-12-28 14:36
 Розмір:   1.91 GB 
 Оцінка фільму:   8.5/10 (Голосів: 16)
   
Інші релізи
   Пам’ятай мене / Remember Me (2010) 2xUkr/Eng | Sub Eng karvai0  2 / 0   2.19 GB   2013-01-30 13:41 
   Пам’ятай мене / Remember Me (2010) 720p Ukr/Eng | Sub Eng DеLight  1 / 0   6.34 GB   2012-09-09 13:42 
   Пам’ятай мене / Remember Me (2010) 1080p Ukr/Eng | Sub Eng | Line Dim-ON  0 / 0   12.13 GB   2010-08-02 23:09 
   Пам’ятай мене / Remember Me (2010) Ukr/Eng Skiff  4 / 0   2.14 GB   2010-06-13 23:56 
volodymyr_sav 
VIP


З нами з: 07.10.13
Востаннє: 18.10.19
Повідомлень: 1614

2019-06-18 11:51  
Примітивне кіно. Бездарна акторська гра Патісона (як можна так кривлятись? бридко) і дуже заплутана ідея. Все змішане в купу, я не зрозумів до чого був початок, якщо далі цю тему не розвинули. Фінал вийшов сильним, але цього замало. Люди не змінюються і гівнюки завжди такими будуть, тільки періодично можуть то приховувати, щоб обдурити когось. Для чого розказувати, що ти найрозумніший і какати іншим на мозок. У кожного свій рівень, це не зміниш, бо то природа. Як на мене абсолютно непотрібний фільм, незважаючи на гарненьку ГГ - Емілі, зірку серіалу Загублені, який би я тут нізащо не дав 28років
Не раджу - 3/10

MasterYura 
Відео Гуртом - фільмокрай
Відео Гуртом - фільмокрай


З нами з: 21.11.09
Востаннє: 18.10.19
Повідомлень: 1066

2019-09-24 21:07  
Я замітив розсинхрон
приклад в діалозі коли він вперше підходить до неї за стіл знайомитись (забув який час)

galateja 
Новенький


З нами з: 22.08.15
Востаннє: 01.10.19
Повідомлень: 12

2019-09-27 06:56  
чудове кіно, щоб ще раз подумати над дійсно цінними речами.
Ваш часовий пояс: GMT + 2 Години

Нова тема   Відповісти