Воно приходить уночі / It Comes at Night (2017) 1080p Ukr/Eng | Sub Eng

Нові коментарі

Нова тема   Відповісти
Автор Повідомлення
staf777 
Відео Гуртом - підтримка та поширення
Відео Гуртом - підтримка та поширення


З нами з: 16.11.16
Востаннє: 20.07.19
Повідомлень: 2669

2018-12-28 10:45  
Воно приходить уночі / It Comes at Night (2017) 1080p Ukr/Eng | Sub Eng

Воно приходить уночі / It Comes at Night (2017) 1080p Ukr/Eng | Sub Eng


Жанр: детектив, драма, жахи
Країна: США



Кінокомпанія: Animal Kingdom, A24
Режисер: Трей Едвард Шульц
Актори: Джоел Едгертон, Крістофер Ебботт, Кармен Еджого, Райлі Кіо, Келвін Харрісон, Гріффін Роберт Фолкнер, Девід Пендлтон

Сюжет:
Цивілізацію вражає зловісна епідемія, що перетворює інфікованих на жахливих монстрів. Світ занурюється в нестерпний жах. Рятуючись від загибелі, батько ховає свою сім'ю в покинутому будинку в гущавині лісу. Одного разу на порозі будинку з'являються незнайомці. Але як врятуватися від божевілля, коли пекло всередині тебе?..


Тривалість: 01:31:37
Якість: 1080p
Відео:
кодек:
розмір кадру: 1920x804
бітрейт: 9285 кб/с

Аудіо # 1:
мова: українська
переклад: професійний дубльований
кодек: 2.0
бітрейт: 192 кб/с
примітка: відсутнє озвучення на проміжку з 00:38:45-->00:38:52 та 01:15:50-->01:15:56 на нього є форсовані субтитри

Аудіо # 2:
мова: англійська
переклад: оригінал
кодек: 5.1
бітрейт: 640 кб/с

Субтитри # 1: [Forced]
мова: українська
тип: програмні (м'які)
формат: *.srt

Субтитри # 2-4: (Full + SDH + SDH-Colored)
мова: англійська
тип: програмні (м'які)
формат: *.srt
Info
General
Unique ID : 177526502064563343738331741382355253168 (0x858E5C51E8F1D6BEF16A6AD5FE3CF7B0)
Complete name : S:\» HD українською » Фільми в HD\Жахи\It Comes at Night (2017) 1080p[UKR][ENG][Hurtom].
Format :
Format version : Version 4
File size : 6.48 GiB
Duration : 1 h 31 min
Overall bit rate : 10.1 Mb/s
Movie name : It Comes at Night (2017) 1080p[UKR][ENG][Hurtom]
Encoded date : UTC 2019-02-09 15:56:09
Writing application : v30.1.0 ('Forever And More') 64-bit
Writing library : libebml v1.3.6 + v1.4.9
Cover : Yes
Attachments : cover.jpg

Video
ID : 1
Format : AVC
Format/Info : Advanced Video Codec
Format profile : [email protected]
Format settings : CABAC / 5 Ref Frames
Format settings, CABAC : Yes
Format settings, ReFrames : 5 frames
Codec ID : V_MPEG4/ISO/AVC
Duration : 1 h 31 min
Bit rate : 9 285 kb/s
Width : 1 920 pixels
Height : 804 pixels
Display aspect ratio : 2.40:1
Frame rate mode : Constant
Frame rate : 23.976 (24000/1001) FPS
Color space : YUV
Chroma subsampling : 4:2:0
Bit depth : 8 bits
Scan type : Progressive
Bits/(Pixel*Frame) : 0.251
Stream size : 5.94 GiB (92%)
Title : potroks
Writing library : core 152 r2851M ba24899
Encoding settings : cabac=1 / ref=5 / deblock=1:-3:-3 / analyse=0x3:0x112 / me=umh / subme=11 / psy=1 / psy_rd=1.05:0.10 / mixed_ref=1 / me_range=48 / chroma_me=1 / trellis=2 / 8x8dct=1 / cqm=0 / deadzone=21,11 / fast_pskip=0 / chroma_qp_offset=-3 / threads=9 / lookahead_threads=1 / sliced_threads=0 / nr=0 / decimate=0 / interlaced=0 / bluray_compat=0 / constrained_intra=0 / bframes=9 / b_pyramid=2 / b_adapt=2 / b_bias=0 / direct=3 / weightb=1 / open_gop=0 / weightp=2 / keyint=240 / keyint_min=23 / scenecut=40 / intra_refresh=0 / rc_lookahead=0 / rc=2pass / mbtree=0 / bitrate=9285 / ratetol=1.0 / qcomp=0.70 / qpmin=0 / qpmax=69 / qpstep=4 / cplxblur=20.0 / qblur=0.5 / vbv_maxrate=62500 / vbv_bufsize=44642 / nal_hrd=none / filler=0 / ip_ratio=1.40 / pb_ratio=1.30 / aq=1:0.75
Language : English
Default : Yes
Forced : No

Audio #1
ID : 2
Format : AC-3
Format/Info : Audio Coding 3
Commercial name : Dolby Digital
Codec ID : A_AC3
Duration : 1 h 31 min
Bit rate mode : Constant
Bit rate : 192 kb/s
Channel(s) : 2 channels
Channel layout : L R
Sampling rate : 48.0 kHz
Frame rate : 31.250 FPS (1536 SPF)
Bit depth : 16 bits
Compression mode : Lossy
Stream size : 126 MiB (2%)
Language : Ukrainian
Service kind : Complete Main
Default : Yes
Forced : Yes

Audio #2
ID : 3
Format : AC-3
Format/Info : Audio Coding 3
Commercial name : Dolby Digital
Codec ID : A_AC3
Duration : 1 h 31 min
Bit rate mode : Constant
Bit rate : 640 kb/s
Channel(s) : 6 channels
Channel layout : L R C LFE Ls Rs
Sampling rate : 48.0 kHz
Frame rate : 31.250 FPS (1536 SPF)
Bit depth : 16 bits
Compression mode : Lossy
Stream size : 419 MiB (6%)
Title : Original | DD 5.1 @ 640 kbps
Language : English
Service kind : Complete Main
Default : No
Forced : No

Text #1
ID : 4
Format : UTF-8
Codec ID : S_TEXT/UTF8
Codec ID/Info : UTF-8 Plain Text
Duration : 37 min 10 s
Bit rate : 1 b/s
Count of elements : 6
Stream size : 348 Bytes (0%)
Language : Ukrainian
Default : Yes
Forced : Yes

Text #2
ID : 5
Format : UTF-8
Codec ID : S_TEXT/UTF8
Codec ID/Info : UTF-8 Plain Text
Duration : 1 h 26 min
Bit rate : 36 b/s
Count of elements : 746
Stream size : 23.3 KiB (0%)
Title : Full
Language : English
Default : No
Forced : No

Text #3
ID : 6
Format : UTF-8
Codec ID : S_TEXT/UTF8
Codec ID/Info : UTF-8 Plain Text
Duration : 1 h 27 min
Bit rate : 45 b/s
Count of elements : 1083
Stream size : 29.2 KiB (0%)
Title : SDH
Language : English
Default : No
Forced : No

Text #4
ID : 7
Format : UTF-8
Codec ID : S_TEXT/UTF8
Codec ID/Info : UTF-8 Plain Text
Duration : 1 h 27 min
Bit rate : 65 b/s
Count of elements : 1083
Stream size : 42.1 KiB (0%)
Title : SDH-Colored
Language : English
Default : No
Forced : No

Menu
00:00:00.000 : en:Chapter 1
00:05:09.225 : en:Chapter 2
00:11:16.175 : en:Chapter 3
00:16:20.270 : en:Chapter 4
00:24:44.399 : en:Chapter 5
00:28:20.323 : en:Chapter 6
00:35:04.435 : en:Chapter 7
00:42:06.690 : en:Chapter 8
00:47:58.792 : en:Chapter 9
00:51:25.332 : en:Chapter 10
00:56:15.872 : en:Chapter 11
01:01:22.720 : en:Chapter 12
01:07:28.127 : en:Chapter 13
01:13:37.746 : en:Chapter 14
01:20:18.146 : en:Chapter 15
01:26:26.764 : en:Chapter 16
Скріншоти
Підтримати купівлю інших фільмів можна тут.



Джерело: & & &

Особиста оцінка: 10 - без зайвих вагань рекомендую всім!


 Трекер:    Зареєстрований   

Завантажити / скачати фільм українською



відео для новачків



 Зареєстрований:   2019-02-09 19:01
 Розмір:   6.48 GB 
 Оцінка фільму:   6.3/10 (Голосів: 8)
   
bot 
робот


З нами з: 30.09.07
Востаннє: 26.05.05
Повідомлень: 21631

2019-02-09 19:01  
Тему перенесено з Анонси релізів до форуму Фільми в HD


staf777

Siegfried 
VIP


З нами з: 01.11.11
Востаннє: 18.07.19
Повідомлень: 270

2019-02-10 16:31  
Як Джоел Едгертон в це вляпався ?
Був про нього кращої думки.
1/10

DIDJEYS 
Новенький


З нами з: 04.03.10
Востаннє: 20.07.19
Повідомлень: 6

2019-02-11 07:02  
Маразм оцінка 1
vovang6 
Поважний учасник


З нами з: 27.08.12
Востаннє: 20.07.19
Повідомлень: 201

2019-02-21 08:27  
Якась двояка думка після перегляду:
-Цікава ідея, та непоганий "сюжет";
-Немає повного, або хоча б часткового розкриття сюжету, нічого не пояснюється. Плюс закінчення яке вводить в ступор.
Але не шкодую що подивився.
6/10.

Ваш часовий пояс: GMT + 2 Години

Нова тема   Відповісти