Повітряний удар / Air Strike / Da Hong Zha (2018) 720p Ukr/Eng

Нові коментарі

Нова тема   Відповісти
Останній раз роздавалося casper101 (2020-09-06)
Автор Повідомлення
DniproFilm 
VIP


З нами з: 10.10.18
Востаннє: 20.09.20
Повідомлень: 429

2018-12-27 23:48  
Повітряний удар / Air Strike / Da Hong Zha (2018) 720p Ukr/Eng

Повітряний удар / Air Strike / Da Hong Zha (2018) 720p Ukr/Eng


Жанр: бойовик, драма, історичний
Країна: Китай



Кінокомпанія: Origin Films, Shanghai Film Group, China Film Group Corporation
Режисер: Сяо Фен
Актори: Лю Е, Брюс Вілліс, Син Хон Сон, Едріан Броуді, Вільям Чан, Єва Хуан, Ніколас Тсе, Бінбін Фань, Ма Су, Вей Фань та інші

Сюжет:
Події кінострічки розгортаються під час другої японсько-китайської війни. Після вимушеного перенесення китайської столиці до Чунцину, японське командування вирішує стерти місто з лиця планети. Тисячі снарядів було скинуто на мирні квартали Чунцину...


Тривалість: 01:37:19

Якість: 720p
Відео:
кодек:
розмір кадру: 1280x532
бітрейт: 3894 кб/с

Аудіо # 1:
мова: українська
переклад: багатоголосий закадровий
кодек: 5.1
бітрейт: 384 кб/с

Аудіо # 2:
мова: анлійська
переклад: оригінал
кодек: 5.1
бітрейт: 640 кб/с
Info

Video
ID : 1
Format : AVC
Format/Info : Advanced Video Codec
Format profile : [email protected]
Format settings : CABAC / 4 Ref Frames
Format settings, CABAC : Yes
Format settings, ReFrames : 4 frames
Codec ID : V_MPEG4/ISO/AVC
Duration : 1 h 37 min
Bit rate : 3 894 kb/s
Width : 1 280 pixels
Height : 532 pixels
Display aspect ratio : 2.40:1
Frame rate mode : Constant
Frame rate : 23.976 (24000/1001) FPS
Standard : NTSC
Color space : YUV
Chroma subsampling : 4:2:0
Bit depth : 8 bits
Scan type : Progressive
Bits/(Pixel*Frame) : 0.239
Stream size : 2.65 GiB (79%)
Language : English
Default : Yes
Forced : No
Color range : Limited
Color primaries : BT.601 NTSC
Transfer characteristics : BT.601
Matrix coefficients : BT.601

Audio #1
ID : 2
Format : AC-3
Format/Info : Audio Coding 3
Commercial name : Dolby Digital
Codec ID : A_AC3
Duration : 1 h 37 min
Bit rate mode : Constant
Bit rate : 384 kb/s
Channel(s) : 6 channels
Channel positions : Front: L C R, Side: L R, LFE
Sampling rate : 48.0 kHz
Frame rate : 31.250 FPS (1536 SPF)
Bit depth : 16 bits
Compression mode : Lossy
Stream size : 267 MiB (8%)
Title : DniproFilm
Language : Ukrainian
Service kind : Complete Main
Default : Yes
Forced : No

Audio #2
ID : 3
Format : AC-3
Format/Info : Audio Coding 3
Codec ID : A_AC3
Duration : 1 h 36 min
Bit rate : 640 kb/s
Channel(s) : 6 channels
Sampling rate : 48.0 kHz
Frame rate : 31.250 FPS (1536 SPF)
Compression mode : Lossy
Stream size : 443 MiB (13%)
Language : English
Default : No
Forced : No
Скріншоти


Увага, присутня відео та аудіореклама.


Джерело: DniproFilm


Авторський реліз (завантажувати можна без реєстрації)
 Трекер:    Зареєстрований   

Завантажити / скачати фільм українською



відео для новачків



 Зареєстрований:   2018-12-27 23:48
 Розмір:   3.34 GB 
 Оцінка фільму:   7.2/10 (Голосів: 5)
   
Інші релізи
taras89 
Новенький


З нами з: 19.10.09
Востаннє: 22.09.20
Повідомлень: 10

2018-12-31 19:11  
Навіщо перекладати фільми з поганим рейтингом?
uaxpasha 
VIP


З нами з: 05.08.12
Востаннє: 21.09.20
Повідомлень: 346

2019-01-02 22:30  
taras89
Dniprofilm важко зрозуміти. Ще й реклама у них

Ваш часовий пояс: GMT + 2 Години

Нова тема   Відповісти