Повітряний удар / Air Strike / Da Hong Zha (2018) 1080p Ukr/Eng

Нові коментарі

Нова тема   Відповісти
Автор Повідомлення
DniproFilm 
VIP


З нами з: 10.10.18
Востаннє: 06.12.19
Повідомлень: 299

2018-12-27 22:48  
Повітряний удар / Air Strike / Da Hong Zha (2018) 1080p Ukr/Eng

Повітряний удар / Air Strike / Da Hong Zha (2018) 1080p Ukr/Eng


Жанр: бойовик, драма, історичний
Країна: Китай



Кінокомпанія: Origin Films, Shanghai Film Group, China Film Group Corporation
Режисер: Сяо Фен
Актори: Лю Е, Брюс Вілліс, Син Хон Сон, Едріан Броуді, Вільям Чан, Єва Хуан, Ніколас Тсе, Бінбін Фань, Ма Су, Вей Фань та інші

Сюжет:
Події кінострічки розгортаються під час другої японсько-китайської війни. Після вимушеного перенесення китайської столиці до Чунцину, японське командування вирішує стерти місто з лиця планети. Тисячі снарядів було скинуто на мирні квартали Чунцину...


Тривалість: 01:37:19

Якість: 1080p
Відео:
кодек:
розмір кадру: 1920x800
бітрейт: 6810 кб/с

Аудіо # 1:
мова: українська
переклад: багатоголосий закадровий
кодек: 5.1
бітрейт: 384 кб/с

Аудіо # 2:
мова: анлійська
переклад: оригінал
кодек: 5.1
бітрейт: 640 кб/с

Джерело озвучення:
DniproFilm
Info

Video
ID : 1
Format : AVC
Format/Info : Advanced Video Codec
Format profile : [email protected]
Format settings : CABAC / 4 Ref Frames
Format settings, CABAC : Yes
Format settings, ReFrames : 4 frames
Codec ID : V_MPEG4/ISO/AVC
Duration : 1 h 37 min
Bit rate : 6 810 kb/s
Width : 1 920 pixels
Height : 800 pixels
Display aspect ratio : 2.40:1
Frame rate mode : Constant
Frame rate : 23.976 (24000/1001) FPS
Standard : NTSC
Color space : YUV
Chroma subsampling : 4:2:0
Bit depth : 8 bits
Scan type : Progressive
Bits/(Pixel*Frame) : 0.185
Stream size : 4.63 GiB (87%)
Language : English
Default : Yes
Forced : No
Color range : Limited
Color primaries : BT.709
Transfer characteristics : BT.709
Matrix coefficients : BT.709

Audio #1
ID : 2
Format : AC-3
Format/Info : Audio Coding 3
Commercial name : Dolby Digital
Codec ID : A_AC3
Duration : 1 h 37 min
Bit rate mode : Constant
Bit rate : 384 kb/s
Channel(s) : 6 channels
Channel positions : Front: L C R, Side: L R, LFE
Sampling rate : 48.0 kHz
Frame rate : 31.250 FPS (1536 SPF)
Bit depth : 16 bits
Compression mode : Lossy
Stream size : 267 MiB (5%)
Title : DniproFilm
Language : Ukrainian
Service kind : Complete Main
Default : Yes
Forced : No

Audio #2
ID : 3
Format : AC-3
Format/Info : Audio Coding 3
Codec ID : A_AC3
Duration : 1 h 36 min
Bit rate : 640 kb/s
Channel(s) : 6 channels
Sampling rate : 48.0 kHz
Frame rate : 31.250 FPS (1536 SPF)
Compression mode : Lossy
Stream size : 443 MiB (8%)
Language : English
Default : No
Forced : No
Скріншоти


Увага, присутня відео та аудіореклама.


Джерело: DniproFilm


Авторський реліз (завантажувати можна без реєстрації)
 Трекер:    Зареєстрований   

Завантажити / скачати фільм українською



відео для новачків



 Зареєстрований:   2018-12-27 22:48
 Розмір:   5.32 GB 
 Оцінка фільму:   5.9/10 (Голосів: 10)
   
Інші релізи
truzyb3 
Новенький


З нами з: 09.12.16
Востаннє: 06.12.19
Повідомлень: 16

2018-12-28 02:51  
то якийсь капець, а не фільм((( навіть додивитися не зміг. рейтинг точно відповідає його якості. Брюс в такій гадості ше здається жодного разу не знімався
archi86 
Свій


З нами з: 06.01.15
Востаннє: 03.12.19
Повідомлень: 133

2018-12-28 11:54  
навіть не думайте дивитися, туфта сама настояща
O_omarella! 
Свій


З нами з: 14.06.13
Востаннє: 01.12.19
Повідомлень: 139

2019-01-02 21:30  
як же так...у Брюса вже гроші закінчились...?
armogun 
Попереджень: 1
Попереджень: 1 


З нами з: 04.05.13
Востаннє: 04.12.19
Повідомлень: 565

2019-03-10 22:02  
рекомендую. Китайський режисер безпомилково. Чорна комедія. Давно так не сміявся. Доводиться терпіти таке після купівлі голлівуду китайцями
Ваш часовий пояс: GMT + 2 Години

Нова тема   Відповісти