Джеймс Бонд. Агент 007: Діаманти залишаються назавжди / James Bond: Diamonds Are Forever (1971) Remux 1080p 2хUkr/Eng | Sub Eng

Нові коментарі

Нова тема   Відповісти
Автор Повідомлення
MakRA 
VIP


З нами з: 10.11.18
Востаннє: 19.11.19
Повідомлень: 528

2018-12-27 15:36  
Джеймс Бонд. Агент 007: Діаманти залишаються назавжди / James Bond: Diamonds Are Forever (1971) Remux 1080p 2хUkr/Eng | Sub Eng

Джеймс Бонд. Агент 007: Діаманти залишаються назавжди / James Bond: Diamonds Are Forever (1971) Remux 1080p 2хUkr/Eng | Sub Eng


Жанр: бойовик, екшн, пригодницький, трилер
Країна: США, Велика Британія



Кінокомпанія: EON Productions
Режисер: Гай Хемільтон [Guy Hamilton]
Актори: Шон Коннері [Sir Thomas Sean Connery], Джілл Сент Джон [Jill St.John], Бернард Лі [Bernard Lee], Десмонд Ллевелін [Desmond Llewelyn], Лоїс Максвелл [Lois Maxwell], Чарльз Грей [Charles Grey], Норман Бертон [Norman Burton], Джіммі Дін [Jimmy Dean], Брюс Гловер [Bruce Glover], Паттер Сміт [Putter Smith], Лана Вуд [Lana Wood], Брюс Кебот [Bruce Cabot], Лоуренс Найсміт [Laurence Naismith]

Сюжет:
Сьомий фільм про англійського суперагента Джеймса Бонда. Екранізація однойменної новели Яна Флемінга.
Шон Конері знову перевтілюється в чарівного й непереможного агента 007.

Джеймс Бонд виконує чергове завдання щодо усунення невмирущого керівника терористичної організації СПЕКТР Ернста Ставро Блофельда, який тепер під ім'ям американського бізнесмена Вілларда Вайта краде велику кількість алмазів. Переправляючи їх з рудників Південної Африки через Амстердам в США, Вайт хоче створити лазерний пристрій, здатний з космосу підкорити весь світ ..

Майже для всіх фільмів бондіани машини виготовлялися спеціально. І лише у цьому фільмі Форд Мустанг Мег-1 був звичайним серійним автомобілем. По сюжету він належав головній героїні стрічки — Тіффані Кейс.


Тривалість: 02:00:08
Якість: Remux 1080p
Відео:
кодек:
розмір кадру: 1920 х 1080
бітрейт: 30,9 Мб/с

Аудіо # 1:
мова: українська
переклад: багатоголосий закадровий ["1+1"]
кодек: 2.0
бітрейт: 256 кб/с

Аудіо # 2:
мова: українська
переклад: багатоголосий закадровий ["Так Треба Продакшн"]
кодек: 2.0
бітрейт: 256 кб/с

Аудіо # 3:
мова: англійська
переклад: оригінал
кодек: 2.0
бітрейт: 224 кб/с

Аудіо # 4:
мова: англійська
переклад: оригінал
кодек: -HD MA 5.1
бітрейт: 4061 кб/с

Субтитри # 1:
мова: англійська
тип: пререндерні
формат: *.pgs
Info
General
Unique ID : 277423118122865163713112461045473663886 (0xD0B5BFC1775A8F2D492BC9D6A0EADB8E)
Complete name : E:\! Моя роздача\ James Bond: Diamonds Are Forever (1971) Remux 1080p 2хUkr/Eng | Sub Eng.
Format :
Format version : Version 4 / Version 2
File size : 30.0 GiB
Duration : 2 h 0 min
Overall bit rate mode : Variable
Overall bit rate : 35.7 Mb/s
Encoded date : UTC 2018-12-27 11:19:56
Writing application : v25.0.0 ('Prog Noir') 64-bit
Writing library : libebml v1.3.6 + v1.4.9

Video
ID : 1
Format : AVC
Format/Info : Advanced Video Codec
Format profile : [email protected]
Format settings, CABAC : Yes
Format settings, RefFrames : 4 frames
Codec ID : V_MPEG4/ISO/AVC
Duration : 2 h 0 min
Bit rate mode : Variable
Bit rate : 30.9 Mb/s
Maximum bit rate : 32.0 Mb/s
Width : 1 920 pixels
Height : 1 080 pixels
Display aspect ratio : 16:9
Frame rate mode : Constant
Frame rate : 23.976 (24000/1001) FPS
Color space : YUV
Chroma subsampling : 4:2:0
Bit depth : 8 bits
Scan type : Progressive
Bits/(Pixel*Frame) : 0.622
Stream size : 25.9 GiB (87%)
Title : James Bond: Diamonds Are Forever (1971) Remux 1080p 2хUkr/Eng | Sub Eng
Language : Ukrainian
Default : Yes
Forced : Yes

Audio #1
ID : 2
Format : AC-3
Format/Info : Audio Coding 3
Format settings, Endianness : Big
Codec ID : A_AC3
Duration : 2 h 0 min
Bit rate mode : Constant
Bit rate : 256 kb/s
Channel(s) : 2 channels
Channel positions : Front: L R
Sampling rate : 48.0 kHz
Frame rate : 31.250 FPS (1536 SPF)
Bit depth : 16 bits
Compression mode : Lossy
Stream size : 220 MiB (1%)
Title : MVO [1+1]
Language : Ukrainian
Service kind : Complete Main
Default : Yes
Forced : Yes

Audio #2
ID : 3
Format : AC-3
Format/Info : Audio Coding 3
Format settings, Endianness : Big
Codec ID : A_AC3
Duration : 2 h 0 min
Bit rate mode : Constant
Bit rate : 256 kb/s
Channel(s) : 2 channels
Channel positions : Front: L R
Sampling rate : 48.0 kHz
Frame rate : 31.250 FPS (1536 SPF)
Bit depth : 16 bits
Compression mode : Lossy
Stream size : 220 MiB (1%)
Title : MVO ["Так Треба Продакшн"]
Language : Ukrainian
Service kind : Complete Main
Default : No
Forced : No

Audio #3
ID : 4
Format : AC-3
Format/Info : Audio Coding 3
Format settings, Endianness : Big
Codec ID : A_AC3
Duration : 2 h 0 min
Bit rate mode : Constant
Bit rate : 224 kb/s
Channel(s) : 2 channels
Channel positions : Front: L R
Sampling rate : 48.0 kHz
Frame rate : 31.250 FPS (1536 SPF)
Bit depth : 16 bits
Compression mode : Lossy
Stream size : 192 MiB (1%)
Title : Original
Language : English
Service kind : Commentary
Default : No
Forced : No

Audio #4
ID : 5
Format :
Format/Info : Digital Theater Systems
Format profile : MA / Core
Mode : 16
Format settings, Endianness : Big
Codec ID : A_DTS
Duration : 2 h 0 min
Bit rate mode : Variable / Constant
Bit rate : 4 061 kb/s / 1 509 kb/s
Channel(s) : 6 channels
Channel positions : Front: L C R, Side: L R, LFE
Sampling rate : 48.0 kHz
Frame rate : 93.750 FPS (512 SPF)
Bit depth : 24 bits
Compression mode : Lossless / Lossy
Stream size : 3.41 GiB (11%)
Title : Original
Language : English
Default : No
Forced : No

Text
ID : 6
Format : PGS
Muxing mode : zlib
Codec ID : S_HDMV/PGS
Codec ID/Info : Picture based subtitle format used on BDs/HD-DVDs
Duration : 1 h 59 min
Bit rate : 28.3 kb/s
Count of elements : 2135
Stream size : 24.1 MiB (0%)
Title : Eng
Language : English
Default : No
Forced : No
Скріншоти
Джерело: &
Особиста оцінка: 10 - без зайвих вагань рекомендую всім!



Золотий реліз (завантажене не впливає на рейтинг)
 Трекер:    Зареєстрований   

Завантажити / скачати фільм українською



відео для новачків



 Зареєстрований:   2018-12-27 15:36
 Розмір:   29.98 GB 
 Оцінка фільму:   9.9/10 (Голосів: 10)
   
MakRA 
VIP


З нами з: 10.11.18
Востаннє: 19.11.19
Повідомлень: 528

2018-12-27 18:19  
Ну що, шановні, продовжувати далі ? Happy
nayton 
Новенький


З нами з: 01.03.13
Востаннє: 19.11.19
Повідомлень: 4

2018-12-27 20:50  
Звичайно!
drtato 
Поважний учасник


З нами з: 28.10.10
Востаннє: 11.11.19
Повідомлень: 156

2018-12-27 21:47  
Це неймовірно ! Звичайно ж продовжуйте !!!

Додано через 1 хвилину 42 секунди:

Дякую Вам за реліз ! Я фанат Бонда.

Ваш часовий пояс: GMT + 2 Години

Нова тема   Відповісти