Ґальвестон / Galveston (2018) 1080p H.265 Ukr/Eng | Sub Eng

Нові коментарі

Нова тема   Відповісти
Автор Повідомлення
Anonymous 







2018-12-27 13:44  
Ґальвестон / Galveston (2018) 1080p H.265 Ukr/Eng | Sub Eng

Ґальвестон / Galveston (2018) 1080p H.265 Ukr/Eng | Sub Eng


Жанр: бойовик, драма, кримінальний, трилер
Країна: США
Кінокомпанія: Jean Doumanian Productions, Low Spark Films
Режисер: Мелані Лоран
Актори: Лілі Рейнхарт, Ель Феннінг, Бен Фостер, Марія Вальверде, Бо Бріджес, Роберт Арамайо, Едеперо Одуйє, Тінслі Прайс, Еністон Прайс, Хайді Левандовскі та інші

Сюжет:
Ґальвестон - це захоплююча американська кінострічка в жанрі кримінального бойовика, в основі якої лежить роман Ніка Піццолатто. У центрі сюжетної лінії Рой Кеді, сорокарічний кілер з Нового Орлеана. Одного разу головний герой дізнається, що смертельно хворий. У нього рак легенів. Ось тільки більше чоловіка хвилює той факт, що від нього хоче здихатися начальник. Тепер Рой змушений тікати з молодою дівчиною легкої поведінки Ракель, сподіваючись, що уникне неприємної долі. Але до чого призведе подібна витівка Роя Кеді? Чи вплине загальний стан здоров'я на виконання задуманого? Чи знайде бос Роя? Та й навіщо йому така супутниця?
Реліз без реклами

Тривалість: 01:33:35
Якість:
Відео:
кодек: H.265 (HEVC)
розмір кадру: 1920 x 804
бітрейт: 4 244 кб/с
частота кадрів: 24 fps
біт піксель: 0.115 BPP
бітова глибина: 10 біт
Увага! Перед завантаженням переконайтесь, що ваш пристрій відтворення (та/або ПЗ) підтримує H.265 (HEVC)

Аудіо # 1:
мова: українська
переклад: багатоголосий закадровий | DniproFilm
кодек: AC-3 5.1
бітрейт: 384 кб/с
Підтримати українське озвучення
Для студії DniproFilm дуже важлива популярність, чим популярнішою буде студія, тим більшу кількість українського озвучення до нових фільмів та серіалів в неї замовлятимуть. Тому прохання до не байдужих підписуватися на їх телеграм канал
Аудіо # 2:
мова: англійська
переклад: оригінал
кодек: AC-3 5.1
бітрейт: 640 кб/с

Субтитри # 1:
мова: англійська (Full),
тип: програмні (м'які)
формат: *.srt


Info
Код:
General
Unique ID                                : 109053780083090303702861253386894660029 (0x520AFE7AC931CE841EAA8F22C10D51BD)
Complete name                            : D:\Video\Galveston (2018) 1080p H.265 [UKR_ENG].
Format                                   :
Format version                           : Version 4 / Version 2
File size                                : 3.45 GiB
Duration                                 : 1 h 33 min
Overall bit rate                         : 5 271 kb/s
Movie name                               : Galveston (2018)
Encoded date                             : UTC 2019-01-18 14:52:55
Writing application                      : v20.0.0 ('I Am The Sun') 32-bit
Writing library                          : libebml v1.3.5 + v1.4.8
Cover                                    : Yes
Attachments                              : Cover.jpg

Video
ID                                       : 1
Format                                   : HEVC
Format/Info                              : High Efficiency Video Coding
Format profile                           : Main [email protected]@Main
Codec ID                                 : V_MPEGH/ISO/HEVC
Duration                                 : 1 h 33 min
Bit rate                                 : 4 244 kb/s
Width                                    : 1 920 pixels
Height                                   : 804 pixels
Display aspect ratio                     : 2.40:1
Frame rate mode                          : Constant
Frame rate                               : 24.000 FPS
Color space                              : YUV
Chroma subsampling                       : 4:2:0
Bit depth                                : 10 bits
Bits/(Pixel*Frame)                       : 0.115
Stream size                              : 2.77 GiB (81%)
Title                                    : Galveston (2018)
Writing library                          : x265 2.9+1-169e76b6bbcc:[Windows][GCC 8.2.0][64 bit] 10bit
Encoding settings                        : cpuid=1111039 / frame-threads=3 / numa-pools=8 / wpp / no-pmode / no-pme / no-psnr / no-ssim / log-level=2 / input-csp=1 / input-res=1920x804 / interlace=0 / total-frames=134760 / level-idc=0 / high-tier=1 / uhd-bd=0 / ref=4 / no-allow-non-conformance / no-repeat-headers / annexb / no-aud / no-hrd / info / hash=0 / no-temporal-layers / open-gop / min-keyint=24 / keyint=250 / gop-lookahead=0 / bframes=8 / b-adapt=2 / b-pyramid / bframe-bias=0 / rc-lookahead=25 / lookahead-slices=4 / scenecut=40 / radl=0 / no-intra-refresh / ctu=64 / min-cu-size=8 / rect / no-amp / max-tu-size=32 / tu-inter-depth=1 / tu-intra-depth=1 / limit-tu=0 / rdoq-level=2 / dynamic-rd=0.00 / no-ssim-rd / signhide / no-tskip / nr-intra=0 / nr-inter=0 / no-constrained-intra / strong-intra-smoothing / max-merge=3 / limit-refs=3 / limit-modes / me=3 / subme=3 / merange=57 / temporal-mvp / weightp / no-weightb / no-analyze-src-pics / deblock=0:0 / sao / no-sao-non-deblock / rd=4 / no-early-skip / rskip / no-fast-intra / no-tskip-fast / no-cu-lossless / no-b-intra / no-splitrd-skip / rdpenalty=0 / psy-rd=2.00 / psy-rdoq=1.00 / no-rd-refine / no-lossless / cbqpoffs=0 / crqpoffs=0 / rc=crf / crf=18.0 / qcomp=0.60 / qpstep=4 / stats-write=0 / stats-read=0 / ipratio=1.40 / pbratio=1.30 / aq-mode=3 / aq-strength=1.00 / cutree / zone-count=0 / no-strict-cbr / qg-size=32 / no-rc-grain / qpmax=69 / qpmin=0 / no-const-vbv / sar=0 / overscan=0 / videoformat=5 / range=0 / colorprim=2 / transfer=2 / colormatrix=2 / chromaloc=0 / display-window=0 / max-cll=0,0 / min-luma=0 / max-luma=1023 / log2-max-poc-lsb=8 / vui-timing-info / vui-hrd-info / slices=1 / no-opt-qp-pps / no-opt-ref-list-length-pps / no-multi-pass-opt-rps / scenecut-bias=0.05 / no-opt-cu-delta-qp / aq-motion / no-hdr / no-hdr-opt / no-dhdr10-opt / no-idr-recovery-sei / analysis-reuse-level=5 / scale-factor=0 / refine-intra=0 / refine-inter=0 / refine-mv=0 / no-limit-sao / ctu-info=0 / no-lowpass-dct / refine-mv-type=0 / copy-pic=1 / max-ausize-factor=1.0 / no-dynamic-refine / no-single-sei
Default                                  : Yes
Forced                                   : No

Audio #1
ID                                       : 2
Format                                   : AC-3
Format/Info                              : Audio Coding 3
Codec ID                                 : A_AC3
Duration                                 : 1 h 33 min
Bit rate mode                            : Constant
Bit rate                                 : 384 kb/s
Channel(s)                               : 6 channels
Channel positions                        : Front: L C R, Side: L R, LFE
Sampling rate                            : 48.0 kHz
Frame rate                               : 31.250 FPS (1536 SPF)
Bit depth                                : 16 bits
Compression mode                         : Lossy
Stream size                              : 257 MiB (7%)
Title                                    : БЗ - DniproFilm
Language                                 : Ukrainian
Service kind                             : Complete Main
Default                                  : Yes
Forced                                   : Yes

Audio #2
ID                                       : 3
Format                                   : AC-3
Format/Info                              : Audio Coding 3
Codec ID                                 : A_AC3
Duration                                 : 1 h 33 min
Bit rate mode                            : Constant
Bit rate                                 : 640 kb/s
Channel(s)                               : 6 channels
Channel positions                        : Front: L C R, Side: L R, LFE
Sampling rate                            : 48.0 kHz
Frame rate                               : 31.250 FPS (1536 SPF)
Bit depth                                : 16 bits
Compression mode                         : Lossy
Stream size                              : 428 MiB (12%)
Title                                    : Original
Language                                 : English
Service kind                             : Complete Main
Default                                  : No
Forced                                   : No

Text
ID                                       : 4
Format                                   : UTF-8
Codec ID                                 : S_TEXT/UTF8
Codec ID/Info                            : UTF-8 Plain Text
Duration                                 : 1 h 28 min
Bit rate                                 : 39 b/s
Count of elements                        : 833
Stream size                              : 25.8 KiB (0%)
Title                                    : Full
Language                                 : English
Default                                  : Yes
Forced                                   : No

Menu
00:00:00.000                             : en:Chapter 00
00:00:11.000                             : en:Chapter 01
00:05:58.708                             : en:Chapter 02
00:10:58.541                             : en:Chapter 03
00:17:07.333                             : en:Chapter 04
00:23:28.666                             : en:Chapter 05
00:30:34.375                             : en:Chapter 06
00:35:54.833                             : en:Chapter 07
00:41:12.875                             : en:Chapter 08
00:48:02.625                             : en:Chapter 09
00:54:36.666                             : en:Chapter 10
01:03:47.125                             : en:Chapter 11
01:08:44.916                             : en:Chapter 12
01:12:36.250                             : en:Chapter 13
01:17:13.833                             : en:Chapter 14
01:21:44.625                             : en:Chapter 15
01:28:00.208                             : en:Chapter 16
Світлини




Джерело:
Особиста оцінка: 0 - не дивився


>>> Усі мої релізи <<<



Авторський реліз (завантажувати можна без реєстрації)
 Трекер:    Зареєстрований   

Завантажити / скачати фільм українською



відео для новачків



 Зареєстрований:   2019-01-18 17:00
 Розмір:   3.45 GB 
 Оцінка фільму:   9.1/10 (Голосів: 17)
   
Інші релізи
   Ґальвестон / Galveston (2018) DniproFilm  4 / 0   1.17 GB   2018-12-25 02:28 
   Ґальвестон / Galveston (2018) 720p Ukr/Eng DniproFilm  3 / 0   3.21 GB   2018-12-25 02:28 
   Ґальвестон / Galveston (2018) 1080p Ukr/Eng DniproFilm  1 / 0   5.13 GB   2018-12-25 02:28 
lightinsight 
Свій


З нами з: 07.04.14
Востаннє: 06.12.19
Повідомлень: 123

2018-12-27 14:01  
Вітаю!Позбавляються не від чогось/когось, а чогось/когось!
Anonymous 







2018-12-27 14:03  
lightinsight написано:
Вітаю!Позбавляються не від чогось/когось, а чогось/когось!

Не зрозумів)
-------------------------------------
UPD. Це Ви про опис. Виправив)

EvGaS 
Відео Гуртом - субтитрування
Відео Гуртом - субтитрування


З нами з: 27.02.12
Востаннє: 31.07.19
Повідомлень: 5674

2018-12-27 14:27  
-Star-Lord- написано:
від нього задумав позбутися

То він про росѣянѣзм в описі сюжету.

Додано через 1 хвилину 21 секунду:

-Star-Lord-, від — зайве слово.

fl_fl 
Відео Гуртом - фільмокрай
Відео Гуртом - фільмокрай


З нами з: 26.05.09
Востаннє: 06.12.19
Повідомлень: 3182

2018-12-27 14:40  
-Star-Lord- написано:
Не хочу бачити на Толоці рекламний контент!

Тоді можна сміливо видаляти цей реліз. Де логіка?

Anonymous 







2018-12-27 14:45  
fl_fl написано:
Де логіка?

Логіка в тому, що мій реліз не містить реклами у відеопотоці. Також хочу почистити доріжку, та не знаю, як це зробити, тому попрохав про допомогу. А замінити доріжку та оновити реліз - це 5 хв роботи.

11FrYkT 
Модератор відео


З нами з: 20.02.11
Востаннє: 05.12.19
Повідомлень: 6381

2018-12-27 14:54  
-Star-Lord- написано:
А замінити доріжку та оновити реліз - це 5 хв роботи.

но якщо так то варто робити як автори інших роздач без реклами. Якщо копати глибоко то у відеопотоці сильно і не заважає

Anonymous 







2018-12-27 15:04  
11FrYkT написано:
но якщо так то варто робити як автори інших роздач без реклами

Я ж не проти, тільки розкажіть як це зробити, як почистити доріжку?

Додано через 3 хвилини 41 секунду:

Розумію, що потрібно на рекламні місця накласти ті ж місця, тільки з оригінальної доріжки. Та я з таким ніколи не стикався, не знаю яким ПЗ це можна зробити.

Anоnymous 
VIP


З нами з: 25.08.18
Востаннє: 04.06.19
Повідомлень: 808

2018-12-27 17:47  
-Star-Lord- написано:

Я ж не проти, тільки розкажіть як це зробити, як почистити доріжку?

Додано через 3 хвилини 41 секунду:

Розумію, що потрібно на рекламні місця накласти ті ж місця, тільки з оригінальної доріжки. Та я з таким ніколи не стикався, не знаю яким ПЗ це можна зробити.

Тут це питання розкрито...... https://toloka.to/t15351-300#1051907

fl_fl 
Відео Гуртом - фільмокрай
Відео Гуртом - фільмокрай


З нами з: 26.05.09
Востаннє: 06.12.19
Повідомлень: 3182

2018-12-27 18:29  
-Star-Lord- написано:
Логіка в тому,

Її нема, бо якби не реклама, не було б цієї озвучки.
Це як вкрасти один раз лампочку у підїзді, а коли перегорить, то красти вже ніде буде.

y.semeniuk 
Новенький


З нами з: 30.11.13
Востаннє: 03.12.19
Повідомлень: 13

2019-01-18 08:55  
Хороший фільм вийшов. Дует Бена Фостера та Ель Феннінг гарно вписалися та передали дух своїх героїв. Рекомендую.
Anonymous 







2019-01-18 17:01  
Оновлення. Тепер реліз без реклами.

dniprodd 
Поважний учасник


З нами з: 31.10.09
Востаннє: 06.12.19
Повідомлень: 202

2019-01-19 04:51  
можна попросити Unbroken: Path to Redemption без реклами?
Anonymous 







2019-01-19 11:30  
dniprodd написано:
можна попросити Unbroken: Path to Redemption без реклами?

Можна. Але це буде наступного тижня та в H.265

zloydark 
Частий відвідувач


З нами з: 11.05.15
Востаннє: 02.12.19
Повідомлень: 25

2019-02-23 15:18  
-Star-Lord-
Дякую за реліз без реклами!

fl_fl
Залиш свої подвійні стандарти при собі!
«Або хрестика зніми, або труси одягни»

ssTAss 
Модератор музики


З нами з: 05.07.08
Востаннє: 06.12.19
Повідомлень: 15624

2019-10-06 20:21  
на мегого те саме озвучення?
https://megogo.net/ua/view/3896791-alveston.html

gt.a 
Свій


З нами з: 10.12.08
Востаннє: 06.12.19
Повідомлень: 97

2019-12-02 16:58  
Не думав, що реклама так напрягає... Тому, дуже дякую за реліз без реклами!
Ваш часовий пояс: GMT + 2 Години

Нова тема   Відповісти