Застосунок / App (2013) 1080p Dutch | sub Ukr, Eng

Нові коментарі

Нова тема   Відповісти
Останній раз роздавалося zawarudo (2018-12-28)
Автор Повідомлення
Anonymous 







2018-12-27 11:31  
Застосунок / App (2013) 1080p Dutch | sub Ukr, Eng

Застосунок / App (2013) 1080p Dutch | sub Ukr, Eng


Жанр: трилер, жахи, психологічний
Країна: Нідерланди



Кінокомпанія: 2CFilm
Режисер: Бобі Бурманс
Актори: Ганна Гекстра, Роберт де Гог, Алекс Гендрікс, Ісис Каболе, Матґейс ван де Санде Бакґейзен

Сюжет:
Після бурхливої вечірки, Анна (Ганна Гекстра) прокидається з сильним похміллям та знаходить на своєму телефоні встановлений таємничий застосунок, який має назву Ірис. Спочатку програма здається нешкідливою, але незабаром Ірис починає втручатися в життя Анни деструктивними способами. Анна відчайдушно намагається позбутися Ірис та виявити мету її дій, але з'ясовує, що знаходиться всередині чогось набагато більшого, аніж вона очікувала напочатку.


Тривалість: 01:18:36
Якість:
Відео:
кодек:
розмір кадру: 1920x804
бітрейт: 2 000 кб/с

Аудіо:
мова: нідерландська
переклад: оригінал
кодек: 5.1
бітрейт: 320 кб/с

Субтитри:
мова: українська
переклад: zawarudo
тип: програмні м'які
формат: *.srt

Субтитри:
мова: англійська
тип: програмні м'які
формат: *.srt
Скриншоти



Info
Код:
General
Unique ID                      : 12916523135459170558858650397717606132 (0x9B7A1C2208C786992AA7B403B6CAEF4)
Complete name                  : G:\Movies\App 2013 BrRip 1080p Dutch,Spa Latino\App 2013 BrRip 1080p Dutch, uk_eng subs.
Format                         :
Format version                 : Version 4 / Version 2
File size                      : 1.27 GiB
Duration                       : 1 h 18 min
Overall bit rate               : 2 308 kb/s
Encoded date                   : UTC 2018-12-26 15:14:50
Writing application            : v28.2.0 ('The Awakening') 32-bit
Writing library                : libebml v1.3.6 + v1.4.9

Video
ID                             : 1
Format                         : AVC
Format/Info                    : Advanced Video Codec
Format profile                 : [email protected]
Format settings, CABAC         : Yes
Format settings, RefFrames     : 4 frames
Codec ID                       : V_MPEG4/ISO/AVC
Duration                       : 1 h 18 min
Bit rate                       : 2 000 kb/s
Width                          : 1 920 pixels
Height                         : 804 pixels
Display aspect ratio           : 2.40:1
Frame rate mode                : Constant
Frame rate                     : 23.976 (24000/1001) FPS
Color space                    : YUV
Chroma subsampling             : 4:2:0
Bit depth                      : 8 bits
Scan type                      : Progressive
Bits/(Pixel*Frame)             : 0.054
Stream size                    : 1.09 GiB (86%)
Writing library                : core 130 r2273 b3065e6
Encoding settings              : cabac=1 / ref=3 / deblock=1:-1:-1 / analyse=0x3:0x113 / me=hex / subme=7 / psy=1 / psy_rd=1.00:0.15 / mixed_ref=1 / me_range=16 / chroma_me=1 / trellis=1 / 8x8dct=1 / cqm=0 / deadzone=21,11 / fast_pskip=1 / chroma_qp_offset=-3 / threads=12 / lookahead_threads=2 / sliced_threads=0 / nr=0 / decimate=1 / interlaced=0 / bluray_compat=0 / constrained_intra=0 / bframes=3 / b_pyramid=2 / b_adapt=1 / b_bias=0 / direct=1 / weightb=1 / open_gop=0 / weightp=2 / keyint=240 / keyint_min=24 / scenecut=40 / intra_refresh=0 / rc_lookahead=40 / rc=abr / mbtree=1 / bitrate=2000 / ratetol=1.0 / qcomp=0.60 / qpmin=0 / qpmax=69 / qpstep=4 / vbv_maxrate=62500 / vbv_bufsize=78125 / nal_hrd=none / ip_ratio=1.40 / aq=1:1.00
Language                       : English
Default                        : Yes
Forced                         : No
Color range                    : Limited
Color primaries                : BT.709
Transfer characteristics       : BT.709
Matrix coefficients            : BT.709

Audio
ID                             : 2
Format                         : AC-3
Format/Info                    : Audio Coding 3
Format settings, Endianness    : Big
Codec ID                       : A_AC3
Duration                       : 1 h 18 min
Bit rate mode                  : Constant
Bit rate                       : 320 kb/s
Channel(s)                     : 6 channels
Channel positions              : Front: L C R, Side: L R, LFE
Sampling rate                  : 48.0 kHz
Frame rate                     : 31.250 FPS (1536 SPF)
Bit depth                      : 16 bits
Compression mode               : Lossy
Stream size                    : 180 MiB (14%)
Title                          : Dutch AC-3
Language                       : Dutch
Service kind                   : Complete Main
Default                        : No
Forced                         : No

Text #1
ID                             : 3
Format                         : UTF-8
Codec ID                       : S_TEXT/UTF8
Codec ID/Info                  : UTF-8 Plain Text
Duration                       : 1 h 15 min
Bit rate                       : 39 b/s
Count of elements              : 673
Stream size                    : 21.6 KiB (0%)
Title                          : English subs
Language                       : English
Default                        : No
Forced                         : No

Text #2
ID                             : 4
Format                         : UTF-8
Codec ID                       : S_TEXT/UTF8
Codec ID/Info                  : UTF-8 Plain Text
Duration                       : 1 h 15 min
Bit rate                       : 66 b/s
Count of elements              : 680
Stream size                    : 36.7 KiB (0%)
Title                          : Ukrainian subs
Language                       : Ukrainian
Default                        : Yes
Forced                         : Yes


Джерело: 1337x.to & zawarudo
Особиста оцінка: 8 - мені сподобалося


 Трекер:    Зареєстрований   

Завантажити / скачати фільм українською



відео для новачків



 Зареєстрований:   2018-12-27 11:31
 Розмір:   1.27 GB 
 Оцінка фільму:   10/10 (Голосів: 1)
   
Varlemond 
Свій


З нами з: 03.06.12
Востаннє: 19.08.19
Повідомлень: 52

2018-12-27 12:41  
Останній скриншот достатньо красномовний - справді "І як воно?" (фільм)
=HomeAlone= 
Частий відвідувач


З нами з: 04.01.11
Востаннє: 28.06.19
Повідомлень: 35

2018-12-27 12:43  
Застосунок? Я думав, що додаток
Anonymous 







2018-12-27 13:59  
Varlemond, мені фільм сподобався. Тому я його й переклав.
=HomeAlone=, на вікіпедії теж застосунок.

11FrYkT 
Модератор відео


З нами з: 20.02.11
Востаннє: 19.08.19
Повідомлень: 6134

2018-12-27 14:00  
Anonymous написано:
utch | sub Ukr, Eng

Так датська чи нідерландська?
Anonymous написано:
Bits/(Pixel*Frame) : 0.054

Anonymous написано:
/ bitrate=2000 /

це міні вони заборонені на толоці, замініть відео на краще
Anonymous написано:
тип: вшиті

програмні м*які

Скріншоти повинні бути у форматі пнг

bot 
робот


З нами з: 30.09.07
Востаннє: 26.05.05
Повідомлень: 21781

2019-01-07 14:00  
Тему перенесено з Неоформлене відео до форуму Фільми


igor911

igor911 
Модератор відео


З нами з: 18.01.08
Востаннє: 20.08.19
Повідомлень: 13128

2019-01-07 23:30  
Авторе, відписав пропозицію по покращенню реліза https://toloka.to/t97645#1058356
NickoOlimp 
Новенький


З нами з: 27.09.16
Востаннє: 16.07.19
Повідомлень: 1

2019-01-16 01:35  
=HomeAlone=
Деякі вважають що "додаток" - це переклад російського "приложение", котрий змінює початковий зміст. І що для англійського "application" точніший переклад - це "застосунок", бо термін походить від слова "to apply" - "застосовувати", і означає прикладну програму.

11FrYkT
До чого тут данська? "Dutch" це нідерландська, "данська" англійською - "Danish".

Ваш часовий пояс: GMT + 2 Години

Нова тема   Відповісти