Слідство веде Міретт / Mirette Ermittelt (Сезон 1) (2017) 1080p

Нові коментарі

Нова тема   Відповісти
Останній раз роздавалося sergiyko.5 (2020-11-26)
Автор Повідомлення
sergiyko.5 
Забанено
Забанено


З нами з: 25.02.16
Востаннє: 29.10.20
Повідомлень: 3648

2018-12-27 00:27  


Слідство веде Міретт / Mirette Ermittelt (Сезон 1) (2017) 1080p

Слідство веде Міретт / Mirette Ermittelt (Сезон 1) (2017) 1080p

Жанр: пригоди, комедія
Країна: Німеччина
Режисер: Флорен Ейтц

Сюжет:
Люстра-кіготь в московському метро? Мумії на вулицях Каїра? Підстрибуючи таксі в Нью-Йорку? Міретт відразу помітить, коли щось не те. Потім детектор хобі каже: "У нас є справа!". Багато що прощається Жан Коту, який воліє сидіти перед телевізором зі своїми солодощами. Але навіть якщо ці дві не завжди згодні - разом маленький "Детективе" з Парижа і її "Кацист" - найкращі друзі і непереможна команда, яка володіє найскладнішими ситуаціями з розумними ідеями, сміливими трюками і за допомогою свого супермаркета. Це те, що хоче відчути Великий Небезпечний Гангстер ТриДжи, який хоче вкрасти відомі будівлі з усього світу для свого мега-мініатюрного поля для гольфу. Міретт та Жан Кіт регулярно перешкоджають йому та його енергійному вихованцю Гігі.




Тривалість: 1 серія: 11:02 (цілком серій: 52 з 52)
Якість:

Відео: кодек: розмір кадру: 1920 х 1080 бітрейт: 6000 кб/с
Аудіо: мова: українська переклад: професійний дубльований кодек: 2.0 бітрейт: 128 кб/с
Озвучення:
Перелік серій
01.Котра година в Парижі
02.Міс Свобода втрачає голову
03.Божевільна мумія
04.Викрадення Сфінкса
05.Одна Міретт добре, а дві краще
06.Париж з повітря
07.Все заради Сфінкса
08.Викрадення танцівниць
09 Хот-Догова істерія
10.Міретт залишається без орхідей
11.Горила в Нью-Йорку
12.Таємниця зниклих кульок
13.Незграбні циркачі
14.Борщ-зрадник
15.Жан-Пат-космонавт
16.Таксі пострибайки
17.Розплющені в Лондоні
18.Пограбування метро
19.Танці щурят
20.Пінна ванна для Міретт
21.Чудовисько Темзи
22.Королівський прийом
23.Загадка літай-килимів
24.Подвійна дилема
25.Викрадення дому в Барселоні
26.Відбудова Колізею
27.Викрадення великого муру
28.Не забувай Міретт
29.Миттєво фото в Парижі
30.Великий світовий добродій
31.Переполох у Пекіні
32.Істина в спагеті Болоньєзе
33.Міретт задає тон
34.Мовчання-золото
35.Священий кіготь Каїра
36.Жаба і королівський палац
37.Навала вертлявих ваз
38.Таємниця мозаїки
39.Рок, викрадення і ботаніка
40.У кожного своя пара
41.Напад сміху у Парижі
42.Бугі-вугі на червоній площі
43.Прокидайся, Нью-Йорку
44.У звязці з Лиходієм
45.Одягнена Венера
46.Привіт, Земле
47.Мір-Пат і Жан-Ретт
48.Вперед, Молло
49.Розм'яклий злочин
50.Злочин із запашком
51.Кігті Каїра
52.Шапкоклей
Про файл:
General
Unique ID : 326891483988335332572083450058370752975 (0xF5ED027F7D3F7565BAFC7093579CA1CF)
Complete name : G:\Torrents2\MULT\MuSERIAL\Mirette Ermittelt S01 1080p \S01E01.Котра година в Парижі.1080p..
Format :
Format version : Version 4
File size : 472 MiB
Duration : 11 min 0 s
Overall bit rate : 6 001 kb/s
Encoded date : UTC 2019-01-20 21:13:43
Writing application : v30.0.0 ('Interstellar') 64-bit
Writing library : libebml v1.3.6 + v1.4.9

Video
ID : 1
Format : AVC
Format/Info : Advanced Video Codec
Format profile : [email protected]
Format settings : CABAC / 1 Ref Frames
Format settings, CABAC : Yes
Format settings, ReFrames : 1 frame
Codec ID : V_MPEG4/ISO/AVC
Duration : 11 min 0 s
Bit rate mode : Constant
Bit rate : 6 000 kb/s
Width : 1 920 pixels
Height : 1 080 pixels
Display aspect ratio : 16:9
Frame rate mode : Constant
Frame rate : 25.000 FPS
Color space : YUV
Chroma subsampling : 4:2:0
Bit depth : 8 bits
Scan type : Progressive
Bits/(Pixel*Frame) : 0.116
Stream size : 462 MiB (98%)
Language : English
Default : Yes
Forced : No

Audio
ID : 2
Format : LC
Format/Info : Advanced Audio Codec Low Complexity
Codec ID : A_AAC-2
Duration : 11 min 0 s
Bit rate : 125 kb/s
Channel(s) : 2 channels
Channel layout : L R
Sampling rate : 48.0 kHz
Frame rate : 46.875 FPS (1024 SPF)
Compression mode : Lossy
Stream size : 9.87 MiB (2%)
Language : Ukrainian
Default : Yes
Forced : No
Скріншоти:



Запис: sergiyko


Бронзовий реліз (на рейтинг впливає 75% завантаженого)
 Трекер:    Зареєстрований   

Завантажити / скачати мультфільм українською



відео для новачків



 Зареєстрований:   2019-01-21 00:42
 Розмір:   23.94 GB 
 Оцінка мультсеріалу:   10/10 (Голосів: 3)
   
Ваш часовий пояс: GMT + 2 Години

Нова тема   Відповісти