Діаблеро (Сезон 1) / Diablero (Season 1) (2018)

Нові коментарі

Нова тема   Відповісти
Автор Повідомлення
DniproFilm 
VIP


З нами з: 10.10.18
Востаннє: 15.02.19
Повідомлень: 288

2018-12-26 19:16  
Діаблеро (Сезон 1) / Diablero (Season 1) (2018)

Діаблеро (Сезон 1) / Diablero (Season 1) (2018)


Жанр: жахи
Країна: Мексика



Кінокомпанія / телеканал: Morena Films
Режисер: Рігоберто Кастанеда, Хосе Мануель Кравіотто
Актори/ролі озвучують: Джейсон Хі, Горасіо Гарсіа Рохас, Хісел'я Курі, Фатіма Моліна, Крістофер Укерман, Умберто Бусто та інші

Сюжет:
Священник Раміро Вентура об'єднується з групою ексцентричних мисливців на демонів та дослідницею паранормального - і усе для того, аби знайти маленьку дівчинку та провчити зло, що спустилося на Мехіко.


Тривалість: 1 серія: ~ 40 хв. (цілком серій: 8)
Перелік серій

1. Episode 1
2. Leg of a Dog, Heart of a Chicken
3. The Hidden Children
4. An Arcane Incantation
5. The Conclave
6. A Woman Diablero
7. Four Tombs
8. Red Sky
Якість:
Відео:
кодек:
розмір кадру: 720x400
бітрейт: 1743 кб/с

Аудіо # 1:
мова: українська
переклад: багатоголосий закадровий
кодек: 5.1
бітрейт: 384 кб/с

Джерело озвучення:
DniproFilm
Info

Video
ID : 0
Format : MPEG-4 Visual
Format profile : Advanced [email protected]
Format settings : BVOP2
Format settings, BVOP : 2
Format settings, QPel : No
Format settings, GMC : No warppoints
Format settings, Matrix : Default (H.263)
Muxing mode : Packed bitstream
Codec ID :
Codec ID/Hint :
Duration : 40 min 4 s
Bit rate : 1 743 kb/s
Width : 720 pixels
Height : 400 pixels
Display aspect ratio : 16:9
Frame rate : 24.000 FPS
Color space : YUV
Chroma subsampling : 4:2:0
Bit depth : 8 bits
Scan type : Progressive
Compression mode : Lossy
Bits/(Pixel*Frame) : 0.252
Stream size : 499 MiB (82%)
Writing library : 67

Audio
ID : 1
Format : AC-3
Format/Info : Audio Coding 3
Commercial name : Dolby Digital
Codec ID : 2000
Duration : 40 min 4 s
Bit rate mode : Constant
Bit rate : 384 kb/s
Channel(s) : 6 channels
Channel positions : Front: L C R, Side: L R, LFE
Sampling rate : 48.0 kHz
Frame rate : 31.250 FPS (1536 SPF)
Bit depth : 16 bits
Compression mode : Lossy
Stream size : 110 MiB (18%)
Alignment : Aligned on interleaves
Interleave, duration : 42 ms (1.00 video frame)
Interleave, preload duratio : 512 ms
Service kind : Complete Main
Скріншоти


Увага, присутня відео та аудіореклама.


Джерело: DniproFilm



Авторський реліз (завантажувати можна без реєстрації)
 Трекер:    Зареєстрований   

Завантажити / скачати серіал українською



відео для новачків



 Зареєстрований:   2018-12-27 22:00
 Розмір:   4.75 GB 
 Оцінка серіалу:   9.3/10 (Голосів: 9)
   
st_78 
VIP


З нами з: 18.11.16
Востаннє: 16.02.19
Повідомлень: 1135

2018-12-26 21:43  
DniproFilm написано:
Країна:Мексика

Нічого собі...

DniproFilm 
VIP


З нами з: 10.10.18
Востаннє: 15.02.19
Повідомлень: 288

2018-12-27 22:01  
УВАГА! РЕЛІЗ ОНОВЛЕНО! (27.12.2018) Додано 4-8 серії (фінал сезону).

don pedro 
Попереджень: 1
Попереджень: 1 


З нами з: 29.06.11
Востаннє: 16.02.19
Повідомлень: 13007

2018-12-29 22:27  
Cподобалося вигнання бісів по мексиканськи: мордобій під верески "Хесус любить тебе"!
don pedro 
Попереджень: 1
Попереджень: 1 


З нами з: 29.06.11
Востаннє: 16.02.19
Повідомлень: 13007

2018-12-30 06:43  
На диво гарно. Весело і водночас не по дебільному. На голову вище (і дорожче), аніж залюблене глядачами "Надприродне". Аж не сподівався такого від Мексики. Але це ж Netflix, вони не підвелиHappy
Дуже раджу.

don pedro 
Попереджень: 1
Попереджень: 1 


З нами з: 29.06.11
Востаннє: 16.02.19
Повідомлень: 13007

2018-12-31 01:31  
Ось воно:
на двадцять третій хвилині останньої серії з'являється довгожданий Діабло!

Neo777 
Модератор відео


З нами з: 23.06.10
Востаннє: 16.02.19
Повідомлень: 685

2019-01-01 17:20  
Дивився в оригіналі. Цікавий серіал. Дійсно гарна мексиканська відповідь Надприродньому. Сподіваюся продовжать на 2 сезон.
Demyan 
Відео Гуртом - озвучення
Відео Гуртом - озвучення


З нами з: 04.02.10
Востаннє: 15.02.19
Повідомлень: 227

2019-01-02 18:29  
Шановні DniproFilm!

А ви не думали озвучити, щось більш популярне та змістовне?

Наприклад The Walking Dead, Deutschald 1986(2-й сезон), ...

Ваш часовий пояс: GMT + 2 Години

Нова тема   Відповісти