Діаблеро (Сезон 1) / Diablero (Season 1) (2018) 1080p Ukr/Spa

Нові коментарі

Нова тема   Відповісти
Останній раз роздавалося Cumva (2019-09-23)
Автор Повідомлення
DniproFilm 
VIP


З нами з: 10.10.18
Востаннє: 01.12.20
Повідомлень: 443

2018-12-26 19:16  
Діаблеро (Сезон 1) / Diablero (Season 1) (2018) 1080p Ukr/Spa

Діаблеро (Сезон 1) / Diablero (Season 1) (2018) 1080p Ukr/Spa


Жанр: жахи
Країна: Мексика



Кінокомпанія / телеканал: Morena Films
Режисер: Рігоберто Кастанеда, Хосе Мануель Кравіотто
Актори/ролі озвучують: Джейсон Хі, Горасіо Гарсіа Рохас, Хісел'я Курі, Фатіма Моліна, Крістофер Укерман, Умберто Бусто та інші

Сюжет:
Священник Раміро Вентура об'єднується з групою ексцентричних мисливців на демонів та дослідницею паранормального - і усе для того, аби знайти маленьку дівчинку та провчити зло, що спустилося на Мехіко.


Тривалість: 1 серія: ~ 40 хв. (цілком серій: 8)
Перелік серій

1. Episode 1
2. Leg of a Dog, Heart of a Chicken
3. The Hidden Children
4. An Arcane Incantation
5. The Conclave
6. A Woman Diablero
7. Four Tombs
8. Red Sky
Якість: 1080p
Відео:
кодек:
розмір кадру: 1920x1080
бітрейт: 6782 кб/с

Аудіо # 1:
мова: українська
переклад: багатоголосий закадровий
кодек: 5.1
бітрейт: 384 кб/с

Аудіо # 2:
мова: іспанська
переклад: оригінал
кодек: 5.1
бітрейт: 640 кб/с

Джерело озвучення:
DniproFilm
Info

Video
ID : 1
Format : AVC
Format/Info : Advanced Video Codec
Format profile : [email protected]
Format settings : CABAC / 4 Ref Frames
Format settings, CABAC : Yes
Format settings, ReFrames : 4 frames
Codec ID : V_MPEG4/ISO/AVC
Duration : 40 min 4 s
Bit rate : 6 782 kb/s
Width : 1 920 pixels
Height : 1 080 pixels
Display aspect ratio : 16:9
Frame rate mode : Constant
Frame rate : 24.000 FPS
Color space : YUV
Chroma subsampling : 4:2:0
Bit depth : 8 bits
Scan type : Progressive
Bits/(Pixel*Frame) : 0.136
Stream size : 1.90 GiB (87%)
Language : English
Default : Yes
Forced : No
Color range : Limited
Color primaries : BT.709
Transfer characteristics : BT.709
Matrix coefficients : BT.709

Audio #1
ID : 2
Format : AC-3
Format/Info : Audio Coding 3
Commercial name : Dolby Digital
Codec ID : A_AC3
Duration : 40 min 4 s
Bit rate mode : Constant
Bit rate : 384 kb/s
Channel(s) : 6 channels
Channel positions : Front: L C R, Side: L R, LFE
Sampling rate : 48.0 kHz
Frame rate : 31.250 FPS (1536 SPF)
Bit depth : 16 bits
Compression mode : Lossy
Stream size : 110 MiB (5%)
Title : DniproFilm
Language : Ukrainian
Service kind : Complete Main
Default : Yes
Forced : No

Audio #2
ID : 3
Format : AC-3
Format/Info : Audio Coding 3
Codec ID : A_AC3
Duration : 39 min 33 s
Bit rate : 640 kb/s
Channel(s) : 6 channels
Sampling rate : 48.0 kHz
Frame rate : 31.250 FPS (1536 SPF)
Compression mode : Lossy
Stream size : 181 MiB (8%)
Language : Spanish
Default : No
Forced : No
Скріншоти


Увага, присутня відео та аудіореклама.


Джерело: DniproFilm



Авторський реліз (завантажувати можна без реєстрації)
 Трекер:    Зареєстрований   

Завантажити / скачати серіал українською



відео для новачків



 Зареєстрований:   2018-12-27 21:59
 Розмір:   17.33 GB 
 Оцінка серіалу:   9.7/10 (Голосів: 3)
   
DniproFilm 
VIP


З нами з: 10.10.18
Востаннє: 01.12.20
Повідомлень: 443

2018-12-27 22:01  
УВАГА! РЕЛІЗ ОНОВЛЕНО! (27.12.2018) Додано 4-8 серії (фінал сезону).

Ваш часовий пояс: GMT + 2 Години

Нова тема   Відповісти