ШАНС-4: Фінальний Гала-концерт (2005) DVBRip

Нові коментарі

Нова тема   Відповісти
Останній раз роздавалося lolyworlds (2018-12-31)

Увійдіть, щоб проголосувати
Автор Повідомлення
lolyworlds 
Частий відвідувач


З нами з: 17.01.18
Востаннє: 26.11.20
Повідомлень: 35

2018-12-26 18:50  
ШАНС-4: Фінальний Гала-концерт (2005) DVBRip




Жанр: музичний
Країна: Україна

Телеканал: IHTEP || K2
Опис:
Фінальний гала-концерт теле-програми "Шанс" 4 сезон. Даний телепроект був присвячений знаходженню талановитих виконавців саме з народу, які прийшли в програму Караоке на Майдані і проспівавши пісні КАРАОКЕ з перемогою в трьох турах, виграли щасливий квиток в заключний, фінальний концерт основного сезону програми ШАНС.

Тривалість: 02:12:54
Cписок Виконавців

01.Все Финалисты-Я самая
02.Наталья Валевская и Владимир Гришко-Адажио
03.Наталья Валевская-Половинка любви
04.Юджин (Евгений Лукаш)-Город
05.Юджин (Евгений Лукаш) и АЛИБИ-Если Мы
06.Алена Корнеева-Два кольори
07.Алена Корнеева-Пять ступеней
08.Сергей Слесаренко-Гудбай, моя крошка!
09.Сергей Слесаренко и Виталий Козловсий-Шекспир (Ремикс)
10.Виталий Козловский-Цепочка
11.Денис Болдышев-Почуй мене
12.Денис Болдышев и SMS-Любий, кохай мене (Ремикс)
13.Татьяна Белинская-Не вiдпускай мене
14.Татьяна Белинская и Олександр Пономарев-Грiм (Ремикс)
15.Олександр Пономарев-Я люблю тiльки тебе
16.Александр Воевудский-Туман
17.Авиатор-Возвращайся
18.Владимир Ткаченко-Юлия
19.Владимир Ткаченко и Наталья Могилевская-Ла-Ла-Ла
20.Наталья Могилевская-Полюби меня такой
21.Анатолий Кальяненко-Ми всiх зробим
22.Анатолий Кальяненко и Кузьма-Старi фотографii
23.Сандерс (Руслан Мороз)-Больно
24.Сандерс (Руслан Мороз) и Ассия Ахат-Мечты
25.Наталья Могилевская и Кузьма-Ти менi не даешь
26.Финальная (ВСЕ)-Киевский вальс
Якість: DVBRip
Відео:
кодек: MPEG-2 ()
розмір кадру: 720x576 (AR 763:576)
бітрейт: ~8466Kbps

Аудіо#1:
мова: українська
кодек: Plus Surround 2.0
бітрейт: 256Kbps

Аудіо#2:
мова: українська
кодек: Plus 2.0 (Clean SAT MONO 2ch)
бітрейт: 256Kbps

Аудіо#3:
мова: українська
кодек: (Original SAT MONO 2ch)
бітрейт: 384Kbps

Скріншоти

Info

General
Unique ID : 111209134588841623647340996027696067566 (0x53AA19A94A221C9B5F96B2EBBAC0B3EE)
Complete name : D:\Downloads\MV\SHANS-4_Final_Full_DVB-SD-Rip_K2_HHD.
Format :
Format version : Version 4 / Version 2
File size : 8.69 GiB
Duration : 2 h 12 min
Overall bit rate mode : Constant
Overall bit rate : 9 365 kb/s
Movie name : SHANS-4: Final Full DVB-SD-Rip K2 HHD
Encoded date : UTC 2018-12-27 14:16:45
Writing application : v29.0.0 ('Like It Or Not') 64-bit
Writing library : libebml v1.3.6 + v1.4.9

Video
ID : 1
Format : MPEG Video
Format version : Version 2
Format profile : [email protected]
Format settings, BVOP : Yes
Format settings, Matrix : Default
Format settings, GOP : M=3, N=12
Format settings, picture st : Frame
Codec ID : V_MPEG2
Codec ID/Info : MPEG 1 or 2 Video
Duration : 2 h 12 min
Bit rate mode : Constant
Bit rate : 8 466 kb/s
Maximum bit rate : 8 000 kb/s
Width : 720 pixels
Height : 576 pixels
Display aspect ratio : 4:3
Original display aspect rat : 4:3
Frame rate mode : Constant
Frame rate : 25.000 FPS
Standard : PAL
Color space : YUV
Chroma subsampling : 4:2:0
Bit depth : 8 bits
Scan type : Interlaced
Scan order : Top Field First
Compression mode : Lossy
Bits/(Pixel*Frame) : 0.817
Stream size : 7.86 GiB (90%)
Title : SHANS-4: Final Full DVB-SD-Rip K2 HHD
Language : Ukrainian
Default : Yes
Forced : Yes
Color primaries : BT.601 PAL
Transfer characteristics : BT.470 System B, BT.470 System G
Matrix coefficients : BT.601

Audio #1
ID : 2
Format : E-AC-3
Format/Info : Enhanced Audio Coding 3
Format settings, Endianness : Big
Codec ID : A_EAC3
Duration : 2 h 12 min
Bit rate mode : Constant
Bit rate : 256 kb/s
Channel(s) : 2 channels
Channel positions : Front: L R
Sampling rate : 48.0 kHz
Frame rate : 187.500 FPS (256 spf)
Compression mode : Lossy
Delay relative to video : -240 ms
Stream size : 243 MiB (3%)
Title : Plus Surround 2.0 256 kbps
Language : Ukrainian
Default : Yes
Forced : Yes

Audio #2
ID : 3
Format : E-AC-3
Format/Info : Enhanced Audio Coding 3
Format settings, Endianness : Big
Codec ID : A_EAC3
Duration : 2 h 12 min
Bit rate mode : Constant
Bit rate : 256 kb/s
Channel(s) : 2 channels
Channel positions : Front: L R
Sampling rate : 48.0 kHz
Frame rate : 187.500 FPS (256 spf)
Compression mode : Lossy
Delay relative to video : -240 ms
Stream size : 243 MiB (3%)
Title : Plus DD2.0 MONO 2ch 256 kbps
Language : Ukrainian
Default : No
Forced : No

Audio #3
ID : 4
Format : AC-3
Format/Info : Audio Coding 3
Mode extension : CM (complete main)
Format settings, Endianness : Big
Codec ID : A_AC3
Duration : 2 h 12 min
Bit rate mode : Constant
Bit rate : 384 kb/s
Channel(s) : 2 channels
Channel positions : Front: L R
Sampling rate : 48.0 kHz
Frame rate : 31.250 FPS (1536 spf)
Bit depth : 16 bits
Compression mode : Lossy
Delay relative to video : 8 ms
Stream size : 365 MiB (4%)
Title : DD2.0 384 kbps SAT Original
Language : Ukrainian
Default : No
Forced : No
Дод. інформація:
- Даний концерт викладений для тих, хто пам'ятає і хоче ще раз зануритися в ту далеку атмосферу щастя і побачити ще раз ... веселого, живого Кузьму Скрябіна.

Шматочок "подивитися"

Джерело: HHD (Home-HD)
Особиста оцінка: 10 - мені дуже сподобалося


Золотий реліз (завантажене не впливає на рейтинг)
 Трекер:    Зареєстрований   

Завантажити / скачати передачу українською



відео для новачків



 Зареєстрований:   2018-12-27 16:32
 Розмір:   8.69 GB 
 Оцінка передачі:   10/10 (Голосів: 2)
   
lolyworlds 
Частий відвідувач


З нами з: 17.01.18
Востаннє: 26.11.20
Повідомлень: 35

2018-12-26 18:53  
Хто підкаже обмінник з 150мВ прийомом розміру файлів?
Volovik 
VIP


З нами з: 21.02.10
Востаннє: 02.12.20
Повідомлень: 450

2018-12-27 07:24  
lolyworlds написано:
Хто підкаже обмінник з 150мВ прийомом розміру файлів?

fex.net, здається, в незареєстрованому вигляді до 2Гб приймає

lolyworlds 
Частий відвідувач


З нами з: 17.01.18
Востаннє: 26.11.20
Повідомлень: 35

2018-12-27 09:40  
Вибачаюсь, свiтло вимкнули в усiм районi. Я знов роздаю.
P.S. Прибрав аудiо-дорiжку Virtual Stereo.

Yefanova 
Новенький


З нами з: 28.11.11
Востаннє: 15.10.20
Повідомлень: 1

2020-05-07 18:13  
А чи є ще записи "Шансу"?
Ваш часовий пояс: GMT + 2 Години

Нова тема   Відповісти