Теорія великого вибуху (Сезон 7) / The Big Bang Theory (Season 7) (2013) 1080p Ukr/Eng | Sub Eng

Нові коментарі

Нова тема   Відповісти
Автор Повідомлення
Argentum 
VIP


З нами з: 25.09.11
Востаннє: 26.11.20
Повідомлень: 262

2018-12-26 17:14  
Теорія великого вибуху (Сезон 7) / The Big Bang Theory (Season 7) (2013) 1080p Ukr/Eng | Sub Eng


Теорія великого вибуху (Сезон 7) / The Big Bang Theory (Season 7) (2013) 1080p Ukr/Eng | Sub Eng


Жанр: комедія
Країна: США



Кінокомпанія: Chuck Lorre Productions, Warner Brothers Television
Режисер: Марк Цендровський, Пітер Чакос
Актори: Джоні Ґалецкі, Джим Парсонс, Кейлі Куоко, Саймон Гелберґ, Кунал Найар, Мелісса Ройч, Маїм Бялік

Сюжет:
Леонард і Шелдон — блискучі фізики, розумники, що знаються на тому, як "працює всесвіт". Але геніальність ані трішечки не допомагає їм у спілкуванні з людьми, особливо жінками. Шелдон взагалі вважає, що чоловіки та жінки належать до різних біологічних видів. Але для Леонарда все змінюється з появою нової сусідки — білявки Пенні.

Друзі геніїв не менш дивакуваті. Воловіц живе зі своєю мамою та стверджує, що насправді це вона з ним живе. Вдає з себе дамського улюбленця, систематично застосовуючи сумнівні поради по знайомству з дівчатами. Раджеш Кутрапалі приймає ліки для подолання патологічної скромності, але все одно втрачає дар мови при появі жінок.

Персонажі серіала відрізняються неабиякими розумовими здібностями, мають свої "фішки" та звички. Коло друзів поступово змінюється, а життя підкидає все більше теорем і парадоксів...



Тривалість: 1 серія: 22:00 (цілком серій: 24)
Перелік серій
7x01. The Hofstadter Insufficiency
7x02. The Deception Verification
7x03. The Scavenger Vortex
7x04. The Raiders Minimization
7x05. The Workplace Proximity
7x06. The Romance Resonance
7x07. The Proton Displacement
7x08. The Itchy Brain Simulation
7x09. The Thanksgiving Decoupling
7x10. The Discovery Dissipation
7x11. The Cooper Extraction
7x12. The Hesitation Ramification
7x13. The Occupation Recalibration
7x14. The Convention Conundrum
7x15. The Locomotive Manipulation
7x16. The Table Polarization
7x17. The Friendship Turbulence
7x18. The Mommy Observation
7x19. The Indecision Amalgamation
7x20. The Relationship Diremption
7x21. The Anything Can Happen Recurrence
7x22. The Proton Transmogrification
7x23. The Gorilla Dissolution
7x24. The Status Quo Combustion
Якість:
Відео:
кодек:
розмір кадру: 1920 х 1080
бітрейт: 11000 кб/с

Аудіо # 1:
мова: українська
переклад: багатоголосий закадровий
кодек: 2.0
бітрейт: 192 кб/с

Аудіо # 2:
мова: англійська
переклад: оригінал
кодек: 5.1
бітрейт: 640 кб/с

Субтитри:
мова: англійська
тип: програмні (м'які)
формат: *.srt
Info
General
Unique ID : 294033183980916799560349425875231726782 (0xDD34BB3AE21BD7B8225A151564A45CBE)
Complete name : The Big Bang Theory. S07E01 (2013) [Ukr,Eng] 1080p [Hurtom].
Format :
Format version : Version 4
File size : 1.77 GiB
Duration : 21 min 24 s
Overall bit rate : 11.8 Mb/s
Movie name : 7x01. The Hofstadter Insufficiency
Encoded date : UTC 2018-12-22 13:19:08
Writing application : v29.0.0 ('Like It Or Not') 64-bit
Writing library : libebml v1.3.6 + v1.4.9

Video
ID : 1
Format : AVC
Format/Info : Advanced Video Codec
Format profile : [email protected]
Format settings : CABAC / 4 Ref Frames
Format settings, CABAC : Yes
Format settings, ReFrames : 4 frames
Codec ID : V_MPEG4/ISO/AVC
Duration : 21 min 22 s
Bit rate : 11.0 Mb/s
Width : 1 920 pixels
Height : 1 080 pixels
Display aspect ratio : 16:9
Frame rate mode : Constant
Frame rate : 23.976 (24000/1001) FPS
Color space : YUV
Chroma subsampling : 4:2:0
Bit depth : 8 bits
Scan type : Progressive
Bits/(Pixel*Frame) : 0.221
Stream size : 1.64 GiB (93%)
Title : AVC 1920*1080 @ 11 Mbps
Writing library : core 152 r2854 e9a5903
Encoding settings : cabac=1 / ref=4 / deblock=1:-3:-3 / analyse=0x3:0x133 / me=umh / subme=11 / psy=1 / psy_rd=1,00:0,15 / mixed_ref=1 / me_range=48 / chroma_me=1 / trellis=2 / 8x8dct=1 / cqm=0 / deadzone=21,11 / fast_pskip=0 / chroma_qp_offset=-3 / threads=12 / lookahead_threads=2 / sliced_threads=0 / nr=0 / decimate=1 / interlaced=0 / bluray_compat=0 / constrained_intra=0 / bframes=8 / b_pyramid=2 / b_adapt=2 / b_bias=0 / direct=3 / weightb=1 / open_gop=0 / weightp=2 / keyint=240 / keyint_min=24 / scenecut=40 / intra_refresh=0 / rc_lookahead=60 / rc=2pass / mbtree=0 / bitrate=11000 / ratetol=1,0 / qcomp=0,60 / qpmin=0 / qpmax=69 / qpstep=4 / cplxblur=20,0 / qblur=0,5 / vbv_maxrate=62500 / vbv_bufsize=78125 / nal_hrd=none / filler=0 / ip_ratio=1,40 / pb_ratio=1,30 / aq=1:1,00
Language : Multiple languages
Default : Yes
Forced : Yes
Color range : Limited
Color primaries : BT.709
Transfer characteristics : BT.709
Matrix coefficients : BT.709

Audio #1
ID : 2
Format : AC-3
Format/Info : Audio Coding 3
Commercial name : Dolby Digital
Codec ID : A_AC3
Duration : 21 min 22 s
Bit rate mode : Constant
Bit rate : 192 kb/s
Channel(s) : 2 channels
Channel layout : L R
Sampling rate : 48.0 kHz
Frame rate : 31.250 FPS (1536 SPF)
Bit depth : 16 bits
Compression mode : Lossy
Stream size : 29.4 MiB (2%)
Title : 2.0 @ 192 Kbps # Paramount COMEDY
Language : Ukrainian
Service kind : Complete Main
Default : Yes
Forced : Yes

Audio #2
ID : 3
Format : AC-3
Format/Info : Audio Coding 3
Commercial name : Dolby Digital
Codec ID : A_AC3
Duration : 21 min 24 s
Bit rate mode : Constant
Bit rate : 640 kb/s
Channel(s) : 6 channels
Channel layout : L R C LFE Ls Rs
Sampling rate : 48.0 kHz
Frame rate : 31.250 FPS (1536 SPF)
Bit depth : 16 bits
Compression mode : Lossy
Stream size : 98.0 MiB (5%)
Title : 5.1 @ 640 Kbps
Language : English
Service kind : Complete Main
Default : No
Forced : No

Text
ID : 4
Format : UTF-8
Codec ID : S_TEXT/UTF8
Codec ID/Info : UTF-8 Plain Text
Duration : 20 min 39 s
Bit rate : 90 b/s
Count of elements : 455
Stream size : 13.7 KiB (0%)
Title : English
Language : English
Default : No
Forced : No

Menu
00:00:00.000 : en:Chapter 01
00:02:39.784 : en:Chapter 02
00:10:42.224 : en:Chapter 03
00:20:25.265 : en:Chapter 04
00:20:54.503 : en:Chapter 05
Скріншоти







Джерело:
Особиста оцінка: 10 - без зайвих вагань рекомендую всім!



Не забуваємо тиснути "Дякую"!


Срібний реліз (на рейтинг впливає 50% завантаженого)
 Трекер:    Зареєстрований   

Завантажити / скачати серіал українською



відео для новачків



 Зареєстрований:   2018-12-27 11:40
 Розмір:   40.31 GB 
 Оцінка серіалу:   9.9/10 (Голосів: 15)
   
bot 
робот


З нами з: 30.09.07
Востаннє: 26.05.05
Повідомлень: 26371

2018-12-26 17:14  
Тему перенесено з Серіали в HD до форуму Анонси релізів


Argentum

bot 
робот


З нами з: 30.09.07
Востаннє: 26.05.05
Повідомлень: 26371

2018-12-27 11:40  
Тему перенесено з Анонси релізів до форуму Серіали в HD


Argentum

tatkatatka 
Новенький


З нами з: 15.11.12
Востаннє: 26.11.20
Повідомлень: 11

2020-02-20 20:36  
Сідери, ви де?
Ваш часовий пояс: GMT + 2 Години

Нова тема   Відповісти