Лабіринт / Labyrinth (1986) AVC Ukr/Eng | Sub Ukr

Нові коментарі

Нова тема   Відповісти
Автор Повідомлення
NemoInFire 
Відео Гуртом - фільмокрай
Відео Гуртом - фільмокрай


З нами з: 12.11.07
Востаннє: 04.08.20
Повідомлень: 657

2018-12-25 19:27  
Лабіринт / Labyrinth (1986) AVC Ukr/Eng | Sub Ukr

Лабіринт / Labyrinth (1986) AVC Ukr/Eng | Sub Ukr


Жанр: пригодницький, сімейний, фентезі
Країна: Велика Британія, США



Кінокомпанія: TriStar Pictures, Henson Associates (HA), Lucasfilm, Jim Henson Company
Режисер: Джим Генсон
Актори: Девід Боуі, Дженніфер Конелі, Крістофер Малкольм, Браян Генсон та інші

Сюжет:
За межею сну й реальності, у повній дивних чудес чарівній країні, жив король ґоблінів Джарет. Одного разу він почув, як дівчинка Сара спересердя сказала нестерпному молодшому братові Тобі: «Щоб тебе ґобліни забрали!» - і відразу піймав її на слові, забравши немовля у свій замок! «Що ж я накоїла!», - ойкнула Сара й кинулася за Джаретом навздогін, поки двері у казку не зачинилися.

Але щоб потрапити у замок викрадача й урятувати брата їй доведеться пройти зачарований Лабіринт. Він повний усіляких чудовиськ, хитрих пасток і головоломок. А вихід з нього стереже, ціле військо ґоблінів! Зустрічаючи на своєму шляху безліч небачених створінь і розгадуючи дивні загадки, Сара хоробро заглиблюється у таємничий світ Лабіринту, крок за кроком наближаючись до твердині короля Джарета...


Тривалість: 01:41:03
Якість: AVC
Відео:
кодек:
розмір кадру: 1056 х 448
бітрейт: 2897 кб/с

Аудіо:
мова: українська (VHS)
переклад: багатоголосий закадровий
кодек: 2.0
бітрейт: 192 кб/с

Джерело озвучення:


Аудіо 2:
мова: англійська
переклад: оригінал
кодек: 5.1
бітрейт: 448 кб/с

Субтитри:
мова: українська
тип: програмні (м'які)
формат: *.srt
Info
General
Unique ID : 247633059935455307320860910103750060426 (0xBA4C647D2C5E897695C857FC0B71298A)
Complete name : D:\Labyrinth (1986) AVC [UKR_ENG sub ukr] [Hurtom].
Format :
Format version : Version 2
File size : 2.55 GiB
Duration : 1 h 41 min
Overall bit rate : 3 609 kb/s
Encoded date : UTC 2018-12-25 16:13:21
Writing application : v4.1.1 ('Bouncin' Back') збірка від Jul 3 2010 22:54:08
Writing library : libebml v1.0.0 + v1.0.0

Video
ID : 1
Format : AVC
Format/Info : Advanced Video Codec
Format profile : [email protected]
Format settings : CABAC / 8 Ref Frames
Format settings, CABAC : Yes
Format settings, RefFrames : 8 frames
Codec ID : V_MPEG4/ISO/AVC
Duration : 1 h 41 min
Bit rate : 2 897 kb/s
Width : 1 056 pixels
Height : 448 pixels
Display aspect ratio : 2.35:1
Frame rate mode : Constant
Frame rate : 23.976 (24000/1001) FPS
Color space : YUV
Chroma subsampling : 4:2:0
Bit depth : 8 bits
Scan type : Progressive
Bits/(Pixel*Frame) : 0.255
Stream size : 2.04 GiB (80%)
Writing library : core 68 r1183M f21daff
Encoding settings : cabac=1 / ref=8 / deblock=1:-3:-1 / analyse=0x3:0x113 / me=umh / subme=9 / psy_rd=0.8:0.4 / mixed_ref=1 / me_range=24 / chroma_me=1 / trellis=2 / 8x8dct=1 / cqm=0 / deadzone=21,11 / chroma_qp_offset=-4 / threads=6 / nr=0 / decimate=0 / mbaff=0 / bframes=6 / b_pyramid=1 / b_adapt=2 / b_bias=0 / direct=1 / wpredb=1 / keyint=250 / keyint_min=25 / scenecut=40 / rc=crf / crf=20.5 / qcomp=0.60 / qpmin=10 / qpmax=51 / qpstep=4 / vbv_maxrate=50000 / vbv_bufsize=50000 / ip_ratio=1.40 / pb_ratio=1.30 / aq=1:1.20
Language : English
Default : Yes
Forced : No

Audio #1
ID : 2
Format : AC-3
Format/Info : Audio Coding 3
Commercial name : Dolby Digital
Muxing mode : Header stripping
Codec ID : A_AC3
Duration : 1 h 41 min
Bit rate mode : Constant
Bit rate : 192 kb/s
Channel(s) : 2 channels
Channel layout : L R
Sampling rate : 48.0 kHz
Frame rate : 31.250 FPS (1536 SPF)
Bit depth : 16 bits
Compression mode : Lossy
Stream size : 139 MiB (5%)
Title : українська ICTV (VHS)
Language : Ukrainian
Service kind : Complete Main
Default : Yes
Forced : Yes

Audio #2
ID : 3
Format : AC-3
Format/Info : Audio Coding 3
Commercial name : Dolby Digital
Muxing mode : Header stripping
Codec ID : A_AC3
Duration : 1 h 41 min
Bit rate mode : Constant
Bit rate : 448 kb/s
Channel(s) : 6 channels
Channel layout : L R C LFE Ls Rs
Sampling rate : 48.0 kHz
Frame rate : 31.250 FPS (1536 SPF)
Bit depth : 16 bits
Compression mode : Lossy
Stream size : 324 MiB (12%)
Title : англійська
Language : English
Service kind : Complete Main
Default : No
Forced : No

Text
ID : 4
Format : UTF-8
Codec ID : S_TEXT/UTF8
Codec ID/Info : UTF-8 Plain Text
Title : українська
Language : Ukrainian
Default : Yes
Forced : No
Скріншоти








Джерело:
Особиста оцінка: мені сподобалося

Подяки:
Atlant777 за свого часу запис з ТБ фільму, потім багаторічне зберігання, врешті оцифрування запису і надання доріжки для поповнення колекції стрічок із українським озвученням,
yume, w2958l за субтитри


Срібний реліз (на рейтинг впливає 50% завантаженого)
 Трекер:    Зареєстрований   

Завантажити / скачати фільм українською



відео для новачків



 Зареєстрований:   2018-12-25 19:27
 Розмір:   2.55 GB 
 Оцінка фільму:   9.8/10 (Голосів: 26)
   
Інші релізи
   Лабіринт / Labyrinth (1986) 1080p H.265 Ukr/Eng | Sub Ukr/Eng -Star-Lord-  0 / 0   8 GB   2019-07-15 09:40 
   Лабіринт / Labyrinth (1986) NemoInFire  3 / 0   1.46 GB   2018-12-30 16:53 
   Лабіринт / Labyrinth (1986) Eng | Sub Ukr Hurtomivets'  1 / 0   1.86 GB   2011-06-26 10:55 
Atlant777 
Новенький


З нами з: 01.03.15
Востаннє: 04.08.20
Повідомлень: 15

2018-12-25 20:32  
Нарешті, повноцінний улюблений фільм дитинства )) дякую друже Nemoifire за роботу!!!
ortt11 
Частий відвідувач


З нами з: 12.01.09
Востаннє: 04.08.20
Повідомлень: 47

2018-12-25 21:43  
Справжнє свято!
KuatemOk 
Поважний учасник


З нами з: 15.11.08
Востаннє: 03.08.20
Повідомлень: 205

2018-12-26 00:18  
Ну нарешті, дякую )
qwerjar 
Поважний учасник


З нами з: 10.07.10
Востаннє: 31.07.20
Повідомлень: 156

2018-12-30 07:52  
Дуже велика дяка, особливо Atlant777!!!
Ваш часовий пояс: GMT + 2 Години

Нова тема   Відповісти