P&P Quintet - Дозвольте заколядувати (2017) [] | A capella

Нові коментарі

Нова тема   Відповісти
Автор Повідомлення
romkop 
Частий відвідувач


З нами з: 26.05.09
Востаннє: 20.01.19
Повідомлень: 39

2018-12-25 17:10  
P&P Quintet - Дозвольте заколядувати (2017) [] | A capella



Стиль: Ethno Folk, Acoustic, Колядки
Країна, місто: Україна, Львів
Видавець: гурт
Виконавці:
P&P Quintet львівської Церкви Єзуїтів (Гарнізонного храму святих апостолів Петра і Павла)
    Олександр Мосійчук - диригент, закінчив Львівську національну музичну академію імені М. В. Лисенка - тенор
    Михайло Кушлик - вокаліст, студент ЛНМА ім. М.В.Лисенка - тенор
    Володимир Пуньково- диригент, закінчив ЛНМА ім. М.В.Лисенка - тенор
    Василь Гнип‘юк - диригент, закінчив ЛНМА ім. М.В.Лисенка - баритон
    Матвій Мельник - вокаліст, студент ЛНМА ім. М.В.Лисенка - бас

Пісні:
    01 - Intro
    02 - Колядка
    03 - Тиха ніч
    04 - В Вифлиємі днесь Марія
    05 - Ой учора із вечора
    06 - Нова радість
    07 - А в нашого пана
    08 - Добривечір хазяїну
    09 - Темненькая нічка
    10 - Що то за предиво
    11 - Ой во граді Вифлиємі
    12 - Mary had a baby
    13 - Blue Christmas

Тривалість: 00:32:46
Мова: українська, англійська (12,13)
Аудіо-кодек:
Бітрейт: 834 кб/с
Джерело: власний ріп диска
log
Exact Audio Copy V1.3 from 2. September 2016

EAC extraction logfile from 25. December 2018, 15:23

P&P Quintet / Дозвольте заколядувати

Used drive : TSSTcorpCDDVDW SE-208AB Adapter: 1 ID: 0

Read mode : Secure
Utilize accurate stream : Yes
Defeat audio cache : No
Make use of C2 pointers : No

Combined read/write offset correction : 6
Overread into Lead-In and Lead-Out : No
Fill up missing offset samples with silence : Yes
Delete leading and trailing silent blocks : No
Null samples used in CRC calculations : Yes
Used interface : Native Win32 interface for Win NT & 2000
Gap handling : Appended to previous track

Used output format : User Defined Encoder
Selected bitrate : 768 kBit/s
Quality : High
Add ID3 tag : No
Command line compressor : C:\Program Files (x86)\Exact Audio Copy\\.EXE
Additional command line options : -6 -V -T "ARTIST=%artist%" -T "TITLE=%title%" -T "ALBUM=%albumtitle%" -T "DATE=%year%" -T "TRACKNUMBER=%tracknr%" -T "GENRE=%genre%" -T "COMMENT=%comment%" -T "BAND=%albuminterpret%" -T "ALBUMARTIST=%albuminterpret%" -T "COMPOSER=%composer%" %haslyrics%--tag-from-file=LYRICS="%lyricsfile%"%haslyrics% -T "DISCNUMBER=%cdnumber%" -T "TOTALDISCS=%totalcds%" -T "TOTALTRACKS=%numtracks%" %hascover%--picture="%coverfile%"%hascover% %source% -o %dest%

TOC of the extracted CD

Track | Start | Length | Start sector | End sector
---------------------------------------------------------
1 | 0:00.00 | 1:47.74 | 0 | 8098
2 | 1:47.74 | 1:45.63 | 8099 | 16036
3 | 3:33.62 | 2:55.66 | 16037 | 29227
4 | 6:29.53 | 2:34.30 | 29228 | 40807
5 | 9:04.08 | 2:04.55 | 40808 | 50162
6 | 11:08.63 | 2:05.40 | 50163 | 59577
7 | 13:14.28 | 2:48.02 | 59578 | 72179
8 | 16:02.30 | 1:56.32 | 72180 | 80911
9 | 17:58.62 | 4:37.08 | 80912 | 101694
10 | 22:35.70 | 3:04.52 | 101695 | 115546
11 | 25:40.47 | 2:53.18 | 115547 | 128539
12 | 28:33.65 | 1:49.00 | 128540 | 136714
13 | 30:22.65 | 2:25.12 | 136715 | 147601

Track 1

Filename C:\Users\romkop\Downloads\P&P Quintet - Дозвольте заколядувати (2017)\01 Intro.wav

Pre-gap length 0:00:02.00

Peak level 83.6 %
Extraction speed 3.4 X
Track quality 100.0 %
Copy CRC CA2F4643
Copy OK

Track 2

Filename C:\Users\romkop\Downloads\P&P Quintet - Дозвольте заколядувати (2017)\02 Колядка.wav

Peak level 85.8 %
Extraction speed 4.9 X
Track quality 100.0 %
Copy CRC 863794C0
Copy OK

Track 3

Filename C:\Users\romkop\Downloads\P&P Quintet - Дозвольте заколядувати (2017)\03 Тиха ніч.wav

Peak level 81.8 %
Extraction speed 5.2 X
Track quality 100.0 %
Copy CRC 2AAC4569
Copy OK

Track 4

Filename C:\Users\romkop\Downloads\P&P Quintet - Дозвольте заколядувати (2017)\04 В Вифлиємі днесь Марія.wav

Peak level 84.3 %
Extraction speed 5.5 X
Track quality 100.0 %
Copy CRC 927EA043
Copy OK

Track 5

Filename C:\Users\romkop\Downloads\P&P Quintet - Дозвольте заколядувати (2017)\05 Ой учора із вечора.wav

Peak level 82.8 %
Extraction speed 5.6 X
Track quality 100.0 %
Copy CRC 2B3D8CFB
Copy OK

Track 6

Filename C:\Users\romkop\Downloads\P&P Quintet - Дозвольте заколядувати (2017)\06 Нова радість.wav

Peak level 83.4 %
Extraction speed 5.8 X
Track quality 100.0 %
Copy CRC 62C3EFEB
Copy OK

Track 7

Filename C:\Users\romkop\Downloads\P&P Quintet - Дозвольте заколядувати (2017)\07 А в нашого пана.wav

Peak level 80.4 %
Extraction speed 6.1 X
Track quality 100.0 %
Copy CRC 3033EC08
Copy OK

Track 8

Filename C:\Users\romkop\Downloads\P&P Quintet - Дозвольте заколядувати (2017)\08 Добривечір хазяїну.wav

Peak level 83.2 %
Extraction speed 6.1 X
Track quality 100.0 %
Copy CRC 2B40CA62
Copy OK

Track 9

Filename C:\Users\romkop\Downloads\P&P Quintet - Дозвольте заколядувати (2017)\09 Темненькая нічка.wav

Peak level 84.2 %
Extraction speed 6.6 X
Track quality 100.0 %
Copy CRC 5270FF63
Copy OK

Track 10

Filename C:\Users\romkop\Downloads\P&P Quintet - Дозвольте заколядувати (2017)\10 Що то за предиво.wav

Peak level 80.8 %
Extraction speed 6.8 X
Track quality 100.0 %
Copy CRC 6393EE02
Copy OK

Track 11

Filename C:\Users\romkop\Downloads\P&P Quintet - Дозвольте заколядувати (2017)\11 Ой во граді Вифлиємі.wav

Peak level 84.2 %
Extraction speed 7.0 X
Track quality 100.0 %
Copy CRC DC6CABAB
Copy OK

Track 12

Filename C:\Users\romkop\Downloads\P&P Quintet - Дозвольте заколядувати (2017)\12 Mary had a baby.wav

Peak level 83.3 %
Extraction speed 7.0 X
Track quality 100.0 %
Copy CRC FFAA0623
Copy OK

Track 13

Filename C:\Users\romkop\Downloads\P&P Quintet - Дозвольте заколядувати (2017)\13 Blue Christmas.wav

Peak level 82.5 %
Extraction speed 7.3 X
Track quality 100.0 %
Copy CRC F7439F56
Copy OK

No errors occurred

End of status report

---- CUETools DB Plugin V2.1.6

[CTDB TOCID: wdJa0pEUJgBdjOEAGwJFXzQYR2E-] disk not present in database
Submit result: wdJa0pEUJgBdjOEAGwJFXzQYR2E- has been uploaded

------------------------------------------------------------

Exact Audio Copy V1.3 from 2. September 2016

EAC extraction logfile from 25. December 2018, 15:23

P&P Quintet / Дозвольте заколядувати

Used drive : TSSTcorpCDDVDW SE-208AB Adapter: 1 ID: 0

Read mode : Secure
Utilize accurate stream : Yes
Defeat audio cache : No
Make use of C2 pointers : No

Combined read/write offset correction : 6
Overread into Lead-In and Lead-Out : No
Fill up missing offset samples with silence : Yes
Delete leading and trailing silent blocks : No
Null samples used in CRC calculations : Yes
Used interface : Native Win32 interface for Win NT & 2000
Gap handling : Appended to previous track

Used output format : User Defined Encoder
Selected bitrate : 768 kBit/s
Quality : High
Add ID3 tag : No
Command line compressor : C:\Program Files (x86)\Exact Audio Copy\\.EXE
Additional command line options : -6 -V -T "ARTIST=%artist%" -T "TITLE=%title%" -T "ALBUM=%albumtitle%" -T "DATE=%year%" -T "TRACKNUMBER=%tracknr%" -T "GENRE=%genre%" -T "COMMENT=%comment%" -T "BAND=%albuminterpret%" -T "ALBUMARTIST=%albuminterpret%" -T "COMPOSER=%composer%" %haslyrics%--tag-from-file=LYRICS="%lyricsfile%"%haslyrics% -T "DISCNUMBER=%cdnumber%" -T "TOTALDISCS=%totalcds%" -T "TOTALTRACKS=%numtracks%" %hascover%--picture="%coverfile%"%hascover% %source% -o %dest%

TOC of the extracted CD

Track | Start | Length | Start sector | End sector
---------------------------------------------------------
1 | 0:00.00 | 1:47.74 | 0 | 8098
2 | 1:47.74 | 1:45.63 | 8099 | 16036
3 | 3:33.62 | 2:55.66 | 16037 | 29227
4 | 6:29.53 | 2:34.30 | 29228 | 40807
5 | 9:04.08 | 2:04.55 | 40808 | 50162
6 | 11:08.63 | 2:05.40 | 50163 | 59577
7 | 13:14.28 | 2:48.02 | 59578 | 72179
8 | 16:02.30 | 1:56.32 | 72180 | 80911
9 | 17:58.62 | 4:37.08 | 80912 | 101694
10 | 22:35.70 | 3:04.52 | 101695 | 115546
11 | 25:40.47 | 2:53.18 | 115547 | 128539
12 | 28:33.65 | 1:49.00 | 128540 | 136714
13 | 30:22.65 | 2:25.12 | 136715 | 147601

Track 1

Filename C:\Users\romkop\Downloads\P&P Quintet - Дозвольте заколядувати (2017)\01 Intro.wav

Pre-gap length 0:00:02.00

Peak level 83.6 %
Extraction speed 3.4 X
Track quality 100.0 %
Copy CRC CA2F4643
Copy OK

Track 2

Filename C:\Users\romkop\Downloads\P&P Quintet - Дозвольте заколядувати (2017)\02 Колядка.wav

Peak level 85.8 %
Extraction speed 4.9 X
Track quality 100.0 %
Copy CRC 863794C0
Copy OK

Track 3

Filename C:\Users\romkop\Downloads\P&P Quintet - Дозвольте заколядувати (2017)\03 Тиха ніч.wav

Peak level 81.8 %
Extraction speed 5.2 X
Track quality 100.0 %
Copy CRC 2AAC4569
Copy OK

Track 4

Filename C:\Users\romkop\Downloads\P&P Quintet - Дозвольте заколядувати (2017)\04 В Вифлиємі днесь Марія.wav

Peak level 84.3 %
Extraction speed 5.5 X
Track quality 100.0 %
Copy CRC 927EA043
Copy OK

Track 5

Filename C:\Users\romkop\Downloads\P&P Quintet - Дозвольте заколядувати (2017)\05 Ой учора із вечора.wav

Peak level 82.8 %
Extraction speed 5.6 X
Track quality 100.0 %
Copy CRC 2B3D8CFB
Copy OK

Track 6

Filename C:\Users\romkop\Downloads\P&P Quintet - Дозвольте заколядувати (2017)\06 Нова радість.wav

Peak level 83.4 %
Extraction speed 5.8 X
Track quality 100.0 %
Copy CRC 62C3EFEB
Copy OK

Track 7

Filename C:\Users\romkop\Downloads\P&P Quintet - Дозвольте заколядувати (2017)\07 А в нашого пана.wav

Peak level 80.4 %
Extraction speed 6.1 X
Track quality 100.0 %
Copy CRC 3033EC08
Copy OK

Track 8

Filename C:\Users\romkop\Downloads\P&P Quintet - Дозвольте заколядувати (2017)\08 Добривечір хазяїну.wav

Peak level 83.2 %
Extraction speed 6.1 X
Track quality 100.0 %
Copy CRC 2B40CA62
Copy OK

Track 9

Filename C:\Users\romkop\Downloads\P&P Quintet - Дозвольте заколядувати (2017)\09 Темненькая нічка.wav

Peak level 84.2 %
Extraction speed 6.6 X
Track quality 100.0 %
Copy CRC 5270FF63
Copy OK

Track 10

Filename C:\Users\romkop\Downloads\P&P Quintet - Дозвольте заколядувати (2017)\10 Що то за предиво.wav

Peak level 80.8 %
Extraction speed 6.8 X
Track quality 100.0 %
Copy CRC 6393EE02
Copy OK

Track 11

Filename C:\Users\romkop\Downloads\P&P Quintet - Дозвольте заколядувати (2017)\11 Ой во граді Вифлиємі.wav

Peak level 84.2 %
Extraction speed 7.0 X
Track quality 100.0 %
Copy CRC DC6CABAB
Copy OK

Track 12

Filename C:\Users\romkop\Downloads\P&P Quintet - Дозвольте заколядувати (2017)\12 Mary had a baby.wav

Peak level 83.3 %
Extraction speed 7.0 X
Track quality 100.0 %
Copy CRC FFAA0623
Copy OK

Track 13

Filename C:\Users\romkop\Downloads\P&P Quintet - Дозвольте заколядувати (2017)\13 Blue Christmas.wav

Peak level 82.5 %
Extraction speed 7.3 X
Track quality 100.0 %
Copy CRC F7439F56
Copy OK

No errors occurred

End of status report

---- CUETools DB Plugin V2.1.6

[CTDB TOCID: wdJa0pEUJgBdjOEAGwJFXzQYR2E-] disk not present in database
Submit result: wdJa0pEUJgBdjOEAGwJFXzQYR2E- has been uploaded


Фріліч (завантажене не впливає на рейтинг)
 Трекер:    Зареєстрований   

Завантажити / скачати українську музику



відео для новачків



 Зареєстрований:   2018-12-25 20:07
 Розмір:   198 MB 
 Оцінка музики:   8.7/10 (Голосів: 7)
   
ssTAss 
Модератор музики


З нами з: 05.07.08
Востаннє: 21.01.19
Повідомлень: 14551

2018-12-25 19:51  
обкладинка має бути до 600х600
romkop написано:
Сайти:

якщо немає оф. сайту, то рядок витріть, натомість потрібен рядок "Видавець" (заповнений)
romkop написано:
Мова: українська

у всіх треках?
romkop написано:
Бітрейт: кб/с

вкажіть числове значення
Ну і трек-ліст прохання написати нормально
01 - Intro
02 - Колядка
03 - Тиха ніч
і т.д.
romkop написано:
20 P&P Quintet - Дозвольте заколядувати.log

вміст цього файлу прохання викласти в темі під спойлером
а цей файл
romkop написано:
5 Art/.picasa.ini

прибрати з роздачі

romkop 
Частий відвідувач


З нами з: 26.05.09
Востаннє: 20.01.19
Повідомлень: 39

2018-12-25 20:12  
Вітання,

пікасівський файл прибрав, торрент перезалив, дані додав, видавця на диску немає

ярий тверезенник 
VIP


З нами з: 29.01.12
Востаннє: 19.01.19
Повідомлень: 2197

2018-12-26 15:46  
romkop написано:
видавця на диску немає

мабуть вони самі себе і записали...

romkop 
Частий відвідувач


З нами з: 26.05.09
Востаннє: 20.01.19
Повідомлень: 39

2018-12-26 18:24  
ярий тверезенник написано:
мабуть вони самі себе і записали...

І добре зробили, диск в них вийшов гарний

Ваш часовий пояс: GMT + 2 Години

Нова тема   Відповісти