Джеймс Бонд. Агент 007: На секретній службі Її Величності / James Bond: On Her Majesty’s Secret Service (1969) Remux 1080p 2хUkr/Eng | Sub Eng

Нові коментарі

Нова тема   Відповісти
Автор Повідомлення
MakRA 
VIP


З нами з: 11.11.18
Востаннє: 28.09.20
Повідомлень: 1120

2018-12-25 15:46  
Джеймс Бонд. Агент 007: На секретній службі Її Величності / James Bond: On Her Majesty’s Secret Service (1969) Remux 1080p 2хUkr/Eng | Sub Eng

Джеймс Бонд. Агент 007: На секретній службі Її Величності / James Bond: On Her Majesty’s Secret Service (1969) Remux 1080p 2хUkr/Eng | Sub Eng


Жанр: бойовик, екшн, трилер, пригодницький
Країна: США, Велика Британія



Кінокомпанія: EON Productions
Режисер: Пітер Р. Хант [Peter R. Hunt]
Актори: Джордж Лезенбі [George Lazenby], Діана Рігг [Diana Rigg], Теллі Савалас [Telly Savalas], Габріеле Ферцетті [Gabriele Ferzetti], Ільзе Штеппат [Ilse Steppat], Анджела Скулар [Angela Scoular], Десмонд Ллевелін [Desmond Llewelyn], Лоїс Максвелл [Lois Maxwell].

Сюжет:
Шостий фільм про англійського суперагента Джеймса Бонда. Екранізація однойменної новели Яна Флемінга.

Як і в попередній п'ятій серії «бондіани», агент 007 знову бореться зі злочинною організацією СПЕКТР, очолюваною негідником Блофельдом. Але дія вже відбувається у швейцарських Альпах.

Роль Бонда вперше зіграв Джордж Лезенбі.


Тривалість: 02:22:18
Якість: Remux 1080p
Відео:
кодек:
розмір кадру: 1920 х 1080
бітрейт: 23,1 Мб/с

Аудіо # 1:
мова: українська
переклад: багатоголосий закадровий | 1+1
кодек: 2.0
бітрейт: 256 kb/s

Аудіо # 2:
мова: українська
переклад: багатоголосий закадровий | Так Треба Продакшн
кодек: 2.0
бітрейт: 256 kb/s

Аудіо # 3:
мова: англійська
переклад: оригінал
кодек: 2.0
бітрейт: 384 kb/s

Аудіо # 4:
мова: англійська
переклад: оригінал
кодек: -HD MA 5.1
бітрейт: 4163 kb/s

Субтитри # 1:
мова: англійська
тип: пререндерні
формат: *.pgs
Info
General
Unique ID : 252275795500250294921812904070921013981 (0xBDCA8D06757761B84CC9AE7C0C3B4ADD)
Complete name : E:\! Моя роздача\James Bond On Her Majesty’s Secret Service (1969) Remux 1080p 2хUkrEng Sub Eng.
Format :
Format version : Version 4 / Version 2
File size : 28.0 GiB
Duration : 2 h 22 min
Overall bit rate mode : Variable
Overall bit rate : 28.2 Mb/s
Encoded date : UTC 2018-12-25 18:31:00
Writing application : v29.0.0 ('Like It Or Not') 64-bit
Writing library : libebml v1.3.6 + v1.4.9

Video
ID : 1
Format : AVC
Format/Info : Advanced Video Codec
Format profile : [email protected]
Format settings, CABAC : Yes
Format settings, RefFrames : 4 frames
Codec ID : V_MPEG4/ISO/AVC
Duration : 2 h 22 min
Bit rate mode : Variable
Bit rate : 23.1 Mb/s
Maximum bit rate : 32.0 Mb/s
Width : 1 920 pixels
Height : 1 080 pixels
Display aspect ratio : 16:9
Frame rate mode : Constant
Frame rate : 23.976 (24000/1001) FPS
Color space : YUV
Chroma subsampling : 4:2:0
Bit depth : 8 bits
Scan type : Progressive
Bits/(Pixel*Frame) : 0.465
Stream size : 23.0 GiB (82%)
Title : James Bond: On Her Majesty’s Secret Service (1969) Remux 1080p Ukr/Eng | Sub Eng
Language : Ukrainian
Default : Yes
Forced : Yes

Audio #1
ID : 2
Format : AC-3
Format/Info : Audio Coding 3
Format settings, Endianness : Big
Codec ID : A_AC3
Duration : 2 h 22 min
Bit rate mode : Constant
Bit rate : 256 kb/s
Channel(s) : 2 channels
Channel positions : Front: L R
Sampling rate : 48.0 kHz
Frame rate : 31.250 FPS (1536 SPF)
Bit depth : 16 bits
Compression mode : Lossy
Stream size : 261 MiB (1%)
Title : MVO [1+1]
Language : Ukrainian
Service kind : Complete Main
Default : Yes
Forced : Yes

Audio #2
ID : 3
Format : AC-3
Format/Info : Audio Coding 3
Format settings, Endianness : Big
Codec ID : A_AC3
Duration : 2 h 22 min
Bit rate mode : Constant
Bit rate : 256 kb/s
Channel(s) : 2 channels
Channel positions : Front: L R
Sampling rate : 48.0 kHz
Frame rate : 31.250 FPS (1536 SPF)
Bit depth : 16 bits
Compression mode : Lossy
Delay relative to video : 1 s 500 ms
Stream size : 260 MiB (1%)
Title : MVO ["Так Треба Продакшн"]
Language : Ukrainian
Service kind : Complete Main
Default : No
Forced : No

Audio #3
ID : 4
Format : AC-3
Format/Info : Audio Coding 3
Format settings, Endianness : Big
Codec ID : A_AC3
Duration : 2 h 22 min
Bit rate mode : Constant
Bit rate : 384 kb/s
Channel(s) : 6 channels
Channel positions : Front: L C R, Side: L R, LFE
Sampling rate : 48.0 kHz
Frame rate : 31.250 FPS (1536 SPF)
Bit depth : 16 bits
Compression mode : Lossy
Stream size : 391 MiB (1%)
Title : Original
Language : English
Service kind : Complete Main
Default : No
Forced : No

Audio #4
ID : 5
Format :
Format/Info : Digital Theater Systems
Format profile : MA / Core
Mode : 16
Format settings, Endianness : Big
Codec ID : A_DTS
Duration : 2 h 22 min
Bit rate mode : Variable / Constant
Bit rate : 4 163 kb/s / 1 509 kb/s
Channel(s) : 6 channels
Channel positions : Front: L C R, Side: L R, LFE
Sampling rate : 48.0 kHz
Frame rate : 93.750 FPS (512 SPF)
Bit depth : 24 bits
Compression mode : Lossless / Lossy
Stream size : 4.14 GiB (15%)
Title : Original
Language : English
Default : No
Forced : No

Text
ID : 6
Format : PGS
Muxing mode : zlib
Codec ID : S_HDMV/PGS
Codec ID/Info : Picture based subtitle format used on BDs/HD-DVDs
Duration : 2 h 21 min
Bit rate : 25.2 kb/s
Count of elements : 2132
Stream size : 25.5 MiB (0%)
Title : Eng
Language : English
Default : No
Forced : No
Скріншоти
Джерело: &
Подяка -Star-Lord- за допомогу.
Особиста оцінка: 10 - без зайвих вагань рекомендую всім!



Золотий реліз (завантажене не впливає на рейтинг)
 Трекер:    Зареєстрований   

Завантажити / скачати фільм українською



відео для новачків



 Зареєстрований:   2018-12-25 22:12
 Розмір:   28.04 GB 
 Оцінка фільму:   9.9/10 (Голосів: 9)
   
MakRA 
VIP


З нами з: 11.11.18
Востаннє: 28.09.20
Повідомлень: 1120

2018-12-25 15:51  
Доріжка від "так треба продакшн" не лягає на ремукс, Знайду або розберуся - добавлю.
-Star-Lord- 
VIP


З нами з: 09.08.18
Востаннє: 28.09.20
Повідомлень: 2008

2018-12-25 16:10  
MakRA
можливо фпс потрібно змінити?

MakRA 
VIP


З нами з: 11.11.18
Востаннє: 28.09.20
Повідомлень: 1120

2018-12-25 16:14  
-Star-Lord-
При добавлянні в мквтул видає "Файл є непідтримуваним форматом контейнера (exit code: 2)"

-Star-Lord- 
VIP


З нами з: 09.08.18
Востаннє: 28.09.20
Повідомлень: 2008

2018-12-25 16:23  
MakRA
З таким не стикався, не підкажу

11FrYkT 
Модератор відео


З нами з: 20.02.11
Востаннє: 28.09.20
Повідомлень: 7005

2018-12-25 17:34  
MakRA написано:
Доріжука від "так треба продакшн" не лягає на ремукс, Знайду або розберуся - добавлю.

обидві доріжка в АС3 який підтримує контейнер мкв, якщо то варто розібратися вже а не робити 4 реліз а потім оновлювати.

Тому пишу ще раз додайте озвучення

-Star-Lord- 
VIP


З нами з: 09.08.18
Востаннє: 28.09.20
Повідомлень: 2008

2018-12-25 17:53  
11FrYkT, MakRA
Можливо доріжка бита, тому не хоче зчитуватися. Витягніть її ще раз або попробуйте загрузити сам відеофайл (якщо доріжку брали з відеофайла) в мквмерж, він його розіб'є на елементи, просто вимкнете не потрібні.

11FrYkT 
Модератор відео


З нами з: 20.02.11
Востаннє: 28.09.20
Повідомлень: 7005

2018-12-25 17:56  
-Star-Lord- написано:
Можливо доріжка бита, тому не хоче зчитуватися.

можливо, але це 4 реліз без 2 доріжки, тому ...

-Star-Lord- 
VIP


З нами з: 09.08.18
Востаннє: 28.09.20
Повідомлень: 2008

2018-12-25 18:04  
11FrYkT
На сервері є якась доріжка в 25 фпс та 384 кб/сек. Може бути таке, що джерело те що треба?
Ось посилання на неї - James Bond 007 - On Her Majesty 19s Secret Service (1969).02h16m21s.[5.1-384].25fps.[Hurtom-Romario_O].

MakRA 
VIP


З нами з: 11.11.18
Востаннє: 28.09.20
Повідомлень: 1120

2018-12-25 18:20  
-Star-Lord-
вона коротша. Не буду розводити дискусії) З авішного ріпа 1ша лягає, 2 ні. Якшо принципіально дві доріжки, то доки на обмізкую, в чому проблемка, поки що з бондіаною пригальмую.

-Star-Lord- 
VIP


З нами з: 09.08.18
Востаннє: 28.09.20
Повідомлень: 2008

2018-12-25 18:23  
MakRA
Сам дістав 2 доріжку з відео і, я можу додати її до іншого файлу.
Спробуйте ще мою додати)

https://fex.net/530127056173

MakRA 
VIP


З нами з: 11.11.18
Востаннє: 28.09.20
Повідомлень: 1120

2018-12-25 18:27  
ок. Спробую. Через годину, вернуся до компа. Чим витягували?
-Star-Lord- 
VIP


З нами з: 09.08.18
Востаннє: 28.09.20
Повідомлень: 2008

2018-12-25 18:29  
MakRA
Спочатку з аві зробив мкв через , бо MkvExtractGUI працює тільки з , останнім дістав.

MakRA 
VIP


З нами з: 11.11.18
Востаннє: 28.09.20
Повідомлень: 1120

2018-12-25 18:31  
-Star-Lord-
Повинно спрацювати, бо я напряму завжди.

-Star-Lord- 
VIP


З нами з: 09.08.18
Востаннє: 28.09.20
Повідомлень: 2008

2018-12-25 18:36  
MakRA
А чим Ви напряму діставали?

MakRA 
VIP


З нами з: 11.11.18
Востаннє: 28.09.20
Повідомлень: 1120

2018-12-25 18:41  
-Star-Lord-
VirtualDub

-Star-Lord- 
VIP


З нами з: 09.08.18
Востаннє: 28.09.20
Повідомлень: 2008

2018-12-25 18:41  
MakRA
Дякую. Гляну на цю програмку)

11FrYkT 
Модератор відео


З нами з: 20.02.11
Востаннє: 28.09.20
Повідомлень: 7005

2018-12-25 23:04  
MakRA написано:
Повинно спрацювати

я так розумію до цього доріжки бралися не з снуючих роздач?

-Star-Lord- 
VIP


З нами з: 09.08.18
Востаннє: 28.09.20
Повідомлень: 2008

2018-12-25 23:13  
11FrYkT
З існуючих

MakRA 
VIP


З нами з: 11.11.18
Востаннє: 28.09.20
Повідомлень: 1120

2018-12-25 23:16  
-Star-Lord-
-Star-Lord- написано:
Спочатку з аві зробив мкв через , бо MkvExtractGUI працює тільки з , останнім дістав.

це допомогло.

-Star-Lord- 
VIP


З нами з: 09.08.18
Востаннє: 28.09.20
Повідомлень: 2008

2018-12-26 01:23  
MakRA
Радий допомогти)

Ваш часовий пояс: GMT + 2 Години

Нова тема   Відповісти