Я все ще бачу тебе / I Still See You (2018) 720p Ukr/Eng | Sub Eng

Нові коментарі

Нова тема   Відповісти
Автор Повідомлення
Anonymous 







2018-12-25 13:44  
Я все ще бачу тебе / I Still See You (2018) 720p Ukr/Eng | Sub Eng

Я все ще бачу тебе / I Still See You (2018) 720p Ukr/Eng | Sub Eng


Жанр: трилер, детектив, фентезі
Країна: США



Кінокомпанія: Gold Circle Films
Режисер: Скотт Спір
Актори: Белла Торн, Дермот Малруні, Річард Хермон, Луіс Хертем, Г'ю Діллон, Емі Прайс-Френсіс, Сара Томпсон, Шон Бенсон

Сюжет:
Протягом багатьох століть існувала тонка межа між світами. Нічого не віщувало біди, але одного разу сталося дещо, що відкрило портал в царство мертвих. Тепер душі могли повертатися в світ живих людей. Деякі могли бачити цих непроханих гостей. Серед них була Вероніка. Дівчина не припускала, що відтепер її життя буде постійно наражатися на небезпеку, адже за бідолахою полює підступний привид...


Тривалість: 01:38:11
Якість:
Відео:
кодек:
розмір кадру: 1280 x 536
бітрейт: 3410 кб/с

Аудіо # 1:
мова: українська
переклад: багатоголосий закадровий | DniproFilm
кодек: 5.1
бітрейт: 384 кб/с

Аудіо # 2:
мова: англійська
переклад: оригінал
кодек: 5.1
бітрейт: 1509 кб/с

Субтитри:
мова: англійська (SDH)
тип: програмні (м'які)
формат: .srt
Info
Complete name : G:\I Still See You 2018 720p [Ukr_Eng.Sub_Eng][Hurtom].
Format :
Format version : Version 4
File size : 3.64 GiB
Duration : 1 h 38 min
Overall bit rate : 5 306 kb/s
Movie name : Я все ще бачу тебе / I Still See You (2018)
Encoded date : UTC 2019-02-23 11:11:53
Writing application : v27.0.0 ('Metropolis') 64-bit
Writing library : libebml v1.3.6 + v1.4.9
Cover : Yes
Attachments : cover.jpg

Video
ID : 1
Format : AVC
Format/Info : Advanced Video Codec
Format profile : [email protected]
Format settings : CABAC / 12 Ref Frames
Format settings, CABAC : Yes
Format settings, ReFrames : 12 frames
Codec ID : V_MPEG4/ISO/AVC
Duration : 1 h 38 min
Bit rate : 3 410 kb/s
Width : 1 280 pixels
Height : 536 pixels
Display aspect ratio : 2.40:1
Frame rate mode : Constant
Frame rate : 23.976 (24000/1001) FPS
Color space : YUV
Chroma subsampling : 4:2:0
Bit depth : 8 bits
Scan type : Progressive
Bits/(Pixel*Frame) : 0.207
Stream size : 2.34 GiB (64%)
Writing library : core 157 r2935 545de2f
Encoding settings : cabac=1 / ref=12 / deblock=1:-3:-3 / analyse=0x3:0x133 / me=umh / subme=10 / psy=1 / psy_rd=0.95:0.00 / mixed_ref=1 / me_range=32 / chroma_me=1 / trellis=2 / 8x8dct=1 / cqm=0 / deadzone=21,11 / fast_pskip=0 / chroma_qp_offset=-2 / threads=17 / lookahead_threads=2 / sliced_threads=0 / nr=0 / decimate=1 / interlaced=0 / bluray_compat=0 / constrained_intra=0 / bframes=8 / b_pyramid=2 / b_adapt=2 / b_bias=0 / direct=3 / weightb=1 / open_gop=0 / weightp=2 / keyint=240 / keyint_min=24 / scenecut=40 / intra_refresh=0 / rc=crf / mbtree=0 / crf=17.0 / qcomp=0.60 / qpmin=0 / qpmax=69 / qpstep=4 / ip_ratio=1.20 / pb_ratio=1.10 / aq=3:0.80
Language : English
Default : Yes
Forced : No

Audio #1
ID : 2
Format : AC-3
Format/Info : Audio Coding 3
Commercial name : Dolby Digital
Codec ID : A_AC3
Duration : 1 h 38 min
Bit rate mode : Constant
Bit rate : 384 kb/s
Channel(s) : 6 channels
Channel layout : L R C LFE Ls Rs
Sampling rate : 48.0 kHz
Frame rate : 31.250 FPS (1536 SPF)
Bit depth : 16 bits
Compression mode : Lossy
Stream size : 270 MiB (7%)
Title : MVO - DniproFilm
Language : Ukrainian
Service kind : Complete Main
Default : Yes
Forced : Yes

Audio #2
ID : 3
Format :
Format/Info : Digital Theater Systems
Codec ID : A_DTS
Duration : 1 h 38 min
Bit rate mode : Constant
Bit rate : 1 509 kb/s
Channel(s) : 6 channels
Channel layout : C L R Ls Rs LFE
Sampling rate : 48.0 kHz
Frame rate : 93.750 FPS (512 SPF)
Bit depth : 24 bits
Compression mode : Lossy
Stream size : 1.04 GiB (28%)
Language : English
Default : No
Forced : No

Text
ID : 4
Format : UTF-8
Codec ID : S_TEXT/UTF8
Codec ID/Info : UTF-8 Plain Text
Duration : 1 h 34 min
Bit rate : 53 b/s
Count of elements : 1083
Stream size : 36.8 KiB (0%)
Title : SDH SRT
Language : English
Default : No
Forced : No

Menu
00:00:00.000 : :Chapter 01
00:05:19.694 : :Chapter 02
00:11:20.138 : :Chapter 03
00:18:19.682 : :Chapter 04
00:23:20.691 : :Chapter 05
00:29:36.817 : :Chapter 06
00:35:12.152 : :Chapter 07
00:43:29.023 : :Chapter 08
00:48:11.931 : :Chapter 09
00:55:16.730 : :Chapter 10
01:01:09.791 : :Chapter 11
01:08:04.122 : :Chapter 12
01:12:41.941 : :Chapter 13
01:19:13.791 : :Chapter 14
01:23:08.817 : :Chapter 15
01:30:47.108 : :Chapter 16
скріншоти







Подяка: 11FrYkT за зведення доріжки.
Джерело: та DniproFilm
Особиста оцінка: ще не дивився


Авторський реліз (завантажувати можна без реєстрації)
 Трекер:    Зареєстрований   

Завантажити / скачати фільм українською



відео для новачків



 Зареєстрований:   2019-04-15 13:07
 Розмір:   3.64 GB 
 Оцінка фільму:   9.4/10 (Голосів: 18)
   
Інші релізи
vovang6 
Поважний учасник


З нами з: 27.08.12
Востаннє: 05.12.19
Повідомлень: 205

2019-02-28 21:27  
Мені дуже сподобався! Цікава історія та ідея. Взагалі по цій ідеї можна було б відзняти серіал)
Непогана операторська робота, монтаж та саунд, гра акторів посередня але не погана. 7/10.

casper101 
VIP


З нами з: 03.12.09
Востаннє: 05.12.19
Повідомлень: 433

2019-04-14 12:20  
один раз подивитися можна.
Nickolassssssss 
Поважний учасник


З нами з: 31.05.14
Востаннє: 05.12.19
Повідомлень: 184

2019-04-14 21:48  
Нормальний фільм. Я не пожалкував, що подивився, хоча й були передбачувані "сюжетні повороти".
Ваш часовий пояс: GMT + 2 Години

Нова тема   Відповісти