Зоряні Війни: Повстанці / Star Wars Rebels (Сезон 3) (2016) 1080p Ukr/Eng

Нові коментарі

Нова тема   Відповісти
Автор Повідомлення
sergiyko.5 
Забанено
Забанено


З нами з: 25.02.16
Востаннє: 29.10.20
Повідомлень: 3648

2018-12-25 11:45  


Зоряні Війни: Повстанці / Star Wars Rebels (Сезон 3) (2016) 1080p Ukr/Eng

Зоряні Війни: Повстанці / Star Wars Rebels (Сезон 3) (2016) 1080p Ukr/Eng

Жанр: фантастика, мультсеріал, пригоди
Країна: США
Кінокомпанія: Lucasfilm, Lucasfilm Animation, Disney Television Animation, Disney–ABC Domestic Television
Режисер: Стюарт Лі, Стівен Дж. Лі, Дейв Філоні

Сюжет:
Для далекої-далекої Галактики настали темні часи. Поглинаючи один світ за іншим, Галактична Імперія продовжує нарощувати свою міць. Імперські війська, які окупували віддалену планету, встановлюють на ній деспотичний режим. Але знаходяться сміливці, готові протистояти силам Імперії. Це екіпаж космічного корабля «Привид». Команді повстанців належить зіткнутися лицем до лиця з новими грізними супротивниками і стати героями, здатними підняти повстання.




Тривалість: 1 серія: 22:30 (цілком серій: 22 з 22)

Якість:
Відео: кодек: розмір кадру: 1920 х 1080 бітрейт: 5200 кб/с
Аудіо # 1: мова: українська переклад: професійний дубльований кодек: 2.0 бітрейт: 192 кб/с
Озвучення:
Аудіо # 2: мова: англійська переклад: оригінал кодек: 5.1 бітрейт: 384 кб/с
Аудіо # 2: мова: англійська переклад: оригінал кодек: 2.0 бітрейт: 160 кб/с
Субтитри: мова: англійська
Перелік серій

01. Steps Into Shadow, Part 1
02. Steps Into Shadow, Part 2
03. The Holocrons of Fate
04. The Antilles Extraction
05. Hera's Heroes
06. The Last Battle
07. Imperial Supercommandos
08. Iron Squadron
09. The Wynkahthu Job
10. An Inside Man
11. Visions and Voices
12. Ghosts of Geonosis, Part 1
13. Ghosts of Geonosis, Part 2
14. Warhead
15. Trials of the Darksaber
16. Legacy of Mandalore
17. Through Imperial Eyes
18. Secret Cargo
19. Double Agent Droid
20. Twin Suns
21. Zero Hour, Part 1
22. Zero Hour, Part 2
Про файл:
General
Unique ID : 321732127795433512949766370915240442034 (0xF20B5A992467ACB373FF2BF1C7CCF8B2)
Complete name : G:\Torrents2\MULT\Star Wars Rebels Season 03 1080p\S03E01-02.Steps.Into.Shadow.1080p..
Format :
Format version : Version 4
File size : 1.78 GiB
Duration : 43 min 26 s
Overall bit rate : 5 883 kb/s
Movie name : Star Wars Rebels Season 03 1080p by sergiyko
Encoded date : UTC 2018-12-27 09:59:04
Writing application : v29.0.0 ('Like It Or Not') 64-bit
Writing library : libebml v1.3.6 + v1.4.9

Video
ID : 1
Format : AVC
Format/Info : Advanced Video Codec
Format profile : [email protected]
Format settings : CABAC / 4 Ref Frames
Format settings, CABAC : Yes
Format settings, ReFrames : 4 frames
Codec ID : V_MPEG4/ISO/AVC
Duration : 43 min 26 s
Bit rate : 5 145 kb/s
Width : 1 920 pixels
Height : 1 080 pixels
Display aspect ratio : 16:9
Frame rate mode : Constant
Frame rate : 23.976 (24000/1001) FPS
Color space : YUV
Chroma subsampling : 4:2:0
Bit depth : 8 bits
Scan type : Progressive
Bits/(Pixel*Frame) : 0.103
Stream size : 1.56 GiB (87%)
Title : S03E01-02.Steps.Into.Shadow
Language : English
Default : Yes
Forced : No
Color range : Limited
Color primaries : BT.709
Transfer characteristics : BT.709
Matrix coefficients : BT.709

Audio #1
ID : 2
Format : AC-3
Format/Info : Audio Coding 3
Commercial name : Dolby Digital
Codec ID : A_AC3
Duration : 43 min 26 s
Bit rate mode : Constant
Bit rate : 192 kb/s
Channel(s) : 2 channels
Channel layout : L R
Sampling rate : 48.0 kHz
Frame rate : 31.250 FPS (1536 SPF)
Bit depth : 16 bits
Compression mode : Lossy
Stream size : 59.6 MiB (3%)
Title : DUB 2.0ch 192kbps | ПлюсПлюс
Language : Ukrainian
Service kind : Complete Main
Default : Yes
Forced : Yes

Audio #2
ID : 3
Format : AC-3
Format/Info : Audio Coding 3
Commercial name : Dolby Digital
Codec ID : A_AC3
Duration : 43 min 26 s
Bit rate mode : Constant
Bit rate : 384 kb/s
Channel(s) : 6 channels
Channel layout : L R C LFE Ls Rs
Sampling rate : 48.0 kHz
Frame rate : 31.250 FPS (1536 SPF)
Bit depth : 16 bits
Compression mode : Lossy
Stream size : 119 MiB (7%)
Title : Original DD5.1
Language : English
Service kind : Complete Main
Default : No
Forced : No

Audio #3
ID : 4
Format : LC
Format/Info : Advanced Audio Codec Low Complexity
Codec ID : A_AAC-2
Duration : 43 min 26 s
Bit rate : 159 kb/s
Channel(s) : 2 channels
Channel layout : L R
Sampling rate : 48.0 kHz
Frame rate : 46.875 FPS (1024 SPF)
Compression mode : Lossy
Stream size : 49.3 MiB (3%)
Title : Original AAC2.0
Language : English
Default : No
Forced : No

Text
ID : 5
Format : UTF-8
Codec ID : S_TEXT/UTF8
Codec ID/Info : UTF-8 Plain Text
Duration : 42 min 45 s
Bit rate : 68 b/s
Count of elements : 696
Stream size : 21.5 KiB (0%)
Title : CC
Language : English
Default : No
Forced : No
Скріншоти:


Запис/зведення: sergiyko


Бронзовий реліз (на рейтинг впливає 75% завантаженого)
 Трекер:    Зареєстрований   

Завантажити / скачати мультфільм українською



відео для новачків



 Зареєстрований:   2019-10-03 13:10
 Розмір:   19.71 GB 
 Оцінка мультсеріалу:   9.8/10 (Голосів: 19)
   
bot 
робот


З нами з: 30.09.07
Востаннє: 26.05.05
Повідомлень: 27902

2018-12-25 11:45  
Тему перенесено з Мультсеріали в HD до форуму Анонси релізів


sergiyko.5

бронн 
Частий відвідувач


З нами з: 21.10.16
Востаннє: 14.04.21
Повідомлень: 48

2018-12-25 12:47  
Супер!!! Давно чекав!!!
bot 
робот


З нами з: 30.09.07
Востаннє: 26.05.05
Повідомлень: 27902

2018-12-27 13:06  
Тему перенесено з Анонси релізів до форуму Мультсеріали в HD


sergiyko.5

sshevch 
Новенький


З нами з: 16.11.10
Востаннє: 08.04.21
Повідомлень: 17

2019-01-04 00:38  
Давно чекав. А коли інші?
sergiyko.5 
Забанено
Забанено


З нами з: 25.02.16
Востаннє: 29.10.20
Повідомлень: 3648

2019-10-03 13:11  
Додав відсутню 9 серію. Сезон повний. Приємного перегляду!
TeronUA 
VIP


З нами з: 13.02.09
Востаннє: 17.04.21
Повідомлень: 416

2019-10-03 21:37  
А четвертий сезон буде?)
dimon-2018 
VIP


З нами з: 06.05.18
Востаннє: 17.04.21
Повідомлень: 622

2019-10-19 09:34  
sergiyko.5
український постер

sshevch 
Новенький


З нами з: 16.11.10
Востаннє: 08.04.21
Повідомлень: 17

2020-01-26 12:12  
А взагалі 4-й сезон показували у нас? Знайшов поки що тільки російською.
IRONHIDE 
VIP


З нами з: 06.08.10
Востаннє: 16.04.21
Повідомлень: 279

2020-05-05 10:32  
9/10
Ваш часовий пояс: GMT + 2 Години

Нова тема   Відповісти