Будинок з годинником у стінах / The House with a Clock in Its Walls (2018) 1080p Ukr/Eng | Sub Eng

Нові коментарі

Нова тема   Відповісти
Автор Повідомлення
staf777 
Відео Гуртом - підтримка та поширення
Відео Гуртом - підтримка та поширення


З нами з: 16.11.16
Востаннє: 28.02.21
Повідомлень: 5067

2018-12-25 10:01  
Будинок з годинником у стінах / The House with a Clock in Its Walls (2018) 1080p Ukr/Eng | Sub Eng



Альтернативний постер

«Відкрийте двері у нескінченність»



Жанр: детектив, жахи, комедія, сімейний, трилер, фантастика, фентезі
Країна: США, Індія, Канада



Кінокомпанія: DreamWorks,Amblin Entertainment,Mythology Entertainment
Режисер: Елай Рот
Актори: Джек Блек, Кейт Бланшетт, Овен Ваккаро, Кайл МакЛахлен, Рене Голдсберрі, Коллін Кемп, Санні Сулджик, Лоренца Іззо

Сюжет:
Перше, що почув Льюїс, ступивши на поріг загадкового особняка свого дядьки, - це цокання годинника, яке лунало з древніх стін. Він занурюється у світ магії та чаклунства, про існування якого навіть не підозрював. Тут оживають картини, живуть неймовірні створіння, а серце будинку зберігає таємницю часу.


Тривалість: 01:45:03
Якість: 1080p

Відео:
кодек:
розмір кадру: 1920x804
бітрейт: 12,7 Mб/с

Аудіо # 1:
мова: українська
переклад: професійний дубльований
кодек: 2.0
бітрейт: 192 кб/с

Аудіо # 2:
мова: англійська
переклад: оригінал
кодек: , 5.1
бітрейт: 448 кб/с

Субтитри:
мова: англійська
тип: програмні (м'які)
формат: *.srt
Info
Код:
General
Unique ID                   : 31138799839767766236004219112342799080 (0x176D1D5D43F9388C06EF88F48E65C2E8)
Complete name               : G:\Фентезі\The House with a Clock in Its Walls (2018) 1080p [UKR_ENG] [Hurtom].
Format                      :
Format version              : Version 4 / Version 2
File size                   : 9.78 GiB
Duration                    : 1 h 45 min
Overall bit rate            : 13.3 Mb/s
Movie name                  : The House with a Clock in Its Walls (2018) 1080p [UKR_ENG] [Hurtom]
Encoded date                : UTC 2018-12-25 08:27:57
Writing application         : v24.0.0 ('Beyond The Pale') 64-bit
Writing library             : libebml v1.3.6 + v1.4.9
Cover                       : Yes
Attachments                 : cover.jpg

Video
ID                          : 1
Format                      : AVC
Format/Info                 : Advanced Video Codec
Format profile              : [email protected]
Format settings             : CABAC / 5 Ref Frames
Format settings, CABAC      : Yes
Format settings, ReFrames   : 5 frames
Codec ID                    : V_MPEG4/ISO/AVC
Duration                    : 1 h 45 min
Bit rate                    : 12.7 Mb/s
Width                       : 1 920 pixels
Height                      : 804 pixels
Display aspect ratio        : 2.40:1
Frame rate mode             : Constant
Frame rate                  : 23.976 (24000/1001) FPS
Color space                 : YUV
Chroma subsampling          : 4:2:0
Bit depth                   : 8 bits
Scan type                   : Progressive
Bits/(Pixel*Frame)          : 0.343
Stream size                 : 9.31 GiB (95%)
Title                       : HDC
Writing library             : core 152 r2851kMod ba24899
Encoding settings           : cabac=1 / ref=5 / deblock=1:-3:-3 / analyse=0x3:0x133 / me=umh / subme=11 / psy=1 / fade_compensate=0.00 / psy_rd=1.10:0.00 / mixed_ref=1 / me_range=48 / chroma_me=1 / trellis=2 / 8x8dct=1 / cqm=0 / deadzone=21,11 / fast_pskip=0 / chroma_qp_offset=-2 / threads=24 / lookahead_threads=4 / sliced_threads=0 / nr=0 / decimate=0 / interlaced=0 / bluray_compat=0 / constrained_intra=0 / bframes=8 / b_pyramid=2 / b_adapt=2 / b_bias=0 / direct=3 / weightb=1 / open_gop=0 / weightp=2 / keyint=240 / keyint_min=2 / scenecut=40 / intra_refresh=0 / rc=crf / mbtree=0 / crf=17.8000 / qcomp=0.70 / qpmin=0 / qpmax=69 / qpstep=4 / ip_ratio=1.30 / pb_ratio=1.20 / aq=3:0.85
Language                    : English
Default                     : Yes
Forced                      : No

Audio #1
ID                          : 2
Format                      : AC-3
Format/Info                 : Audio Coding 3
Codec ID                    : A_AC3
Duration                    : 1 h 45 min
Bit rate mode               : Constant
Bit rate                    : 192 kb/s
Channel(s)                  : 2 channels
Channel positions           : Front: L R
Sampling rate               : 48.0 kHz
Frame rate                  : 31.250 FPS (1536 SPF)
Bit depth                   : 16 bits
Compression mode            : Lossy
Stream size                 : 144 MiB (1%)
Language                    : Ukrainian
Service kind                : Complete Main
Default                     : Yes
Forced                      : Yes

Audio #2
ID                          : 3
Format                      : AC-3
Format/Info                 : Audio Coding 3
Codec ID                    : A_AC3
Duration                    : 1 h 45 min
Bit rate mode               : Constant
Bit rate                    : 448 kb/s
Channel(s)                  : 6 channels
Channel positions           : Front: L C R, Side: L R, LFE
Sampling rate               : 48.0 kHz
Frame rate                  : 31.250 FPS (1536 SPF)
Bit depth                   : 16 bits
Compression mode            : Lossy
Stream size                 : 337 MiB (3%)
Title                       : Original
Language                    : English
Service kind                : Complete Main
Default                     : No
Forced                      : No

Text #1
ID                          : 4
Format                      : UTF-8
Codec ID                    : S_TEXT/UTF8
Codec ID/Info               : UTF-8 Plain Text
Duration                    : 1 h 37 min
Bit rate                    : 55 b/s
Count of elements           : 1288
Stream size                 : 39.8 KiB (0%)
Title                       : Full
Language                    : English
Default                     : No
Forced                      : No

Text #2
ID                          : 5
Format                      : UTF-8
Codec ID                    : S_TEXT/UTF8
Codec ID/Info               : UTF-8 Plain Text
Duration                    : 1 h 39 min
Bit rate                    : 65 b/s
Count of elements           : 1629
Stream size                 : 47.6 KiB (0%)
Title                       : SDH
Language                    : English
Default                     : No
Forced                      : No

Menu
00:00:00.000                : :Глава 01
00:05:32.707                : :Глава 02
00:11:59.635                : :Глава 03
00:16:41.792                : :Глава 04
00:22:41.985                : :Глава 05
00:27:43.536                : :Глава 06
00:31:11.494                : :Глава 07
00:34:58.346                : :Глава 08
00:39:05.843                : :Глава 09
00:44:35.422                : :Глава 10
00:49:56.034                : :Глава 11
00:53:44.221                : :Глава 12
00:58:07.734                : :Глава 13
01:05:02.064                : :Глава 14
01:11:44.842                : :Глава 15
01:15:59.638                : :Глава 16
01:21:33.805                : :Глава 17
01:26:39.986                : :Глава 18
01:33:34.650                : :Глава 19
01:39:03.938                : :Глава 20






Джерело: & &
Особиста оцінка: 8 - мені сподобалося
Будинок з годинником у стінах / The House with a Clock in Its Walls (2018) 1080p Ukr/Eng | Sub Eng Будинок з годинником у стінах / The House with a Clock in Its Walls (2018) 1080p Ukr/Eng | Sub Eng


 Трекер:    Зареєстрований   

Завантажити / скачати фільм українською



відео для новачків



 Зареєстрований:   2018-12-25 10:42
 Розмір:   9.78 GB 
 Оцінка фільму:   8.6/10 (Голосів: 17)
   
bot 
робот


З нами з: 30.09.07
Востаннє: 26.05.05
Повідомлень: 27273

2018-12-25 10:42  
Тему перенесено з Анонси релізів до форуму Фільми в HD


staf777

warloon 
Частий відвідувач


З нами з: 14.12.10
Востаннє: 20.02.21
Повідомлень: 41

2020-05-02 10:20  
Не дивно, що ніхто ще нічого не написав... Фільм - одноразовий, "калька" з 5-6 інших аналогічних за жанром, як на мене, лиш щоб зняти касу - мішанина з символічного, і купа неузгоджених моментів по сценарію. За Джека Блека ще не дивно, але від Кейт Бланшет я сподівався більшого...
Ваш часовий пояс: GMT + 2 Години

Нова тема   Відповісти