Будинок з годинником у стінах / The House with a Clock in Its Walls (2018) Remux 1080p Ukr/Eng | Sub Eng

Нові коментарі

Нова тема   Відповісти
Останній раз роздавалося staf777 (2021-02-28)
Автор Повідомлення
staf777 
Відео Гуртом - підтримка та поширення
Відео Гуртом - підтримка та поширення


З нами з: 16.11.16
Востаннє: 28.02.21
Повідомлень: 5067

2018-12-25 09:53  
Будинок з годинником у стінах / The House with a Clock in Its Walls (2018) Remux 1080p Ukr/Eng | Sub Eng



Альтернативний постер

«Відкрийте двері у нескінченність»



Жанр: детектив, жахи, комедія, сімейний, трилер, фантастика, фентезі
Країна: США, Індія, Канада



Кінокомпанія: DreamWorks,Amblin Entertainment,Mythology Entertainment
Режисер: Елай Рот
Актори: Джек Блек, Кейт Бланшетт, Овен Ваккаро, Кайл МакЛахлен, Рене Голдсберрі, Коллін Кемп, Санні Сулджик, Лоренца Іззо

Сюжет:
Перше, що почув Льюїс, ступивши на поріг загадкового особняка свого дядьки, - це цокання годинника, яке лунало з древніх стін. Він занурюється у світ магії та чаклунства, про існування якого навіть не підозрював. Тут оживають картини, живуть неймовірні створіння, а серце будинку зберігає таємницю часу.


Тривалість: 01:45:03
Якість: Remux 1080p

Відео:
кодек:
розмір кадру: 1908x1080
бітрейт: 24.9 Mб/с

Аудіо # 1:
мова: українська
переклад: професійний дубльований
кодек: 2.0
бітрейт: 192 кб/с

Аудіо # 2:
мова: англійська
переклад: оригінал
кодек: TrueHD 7.1
бітрейт: 4274 кб/с

Субтитри:
мова: англійська
тип: програмні (м'які)
формат: *.srt
Info
Код:
General
Unique ID                   : 98768631068140954901032530055875184057 (0x4A4E257B63C0D5CD839CBC3B082AC5B9)
Complete name               : G:\Фентезі\The House with a Clock in Its Walls (2018) Remux 1080p [UKR_ENG] [Hurtom].
Format                      :
Format version              : Version 4 / Version 2
File size                   : 21.6 GiB
Duration                    : 1 h 45 min
Overall bit rate mode       : Variable
Overall bit rate            : 29.4 Mb/s
Movie name                  : The House with a Clock in Its Walls (2018) Remux 1080p [UKR_ENG] [Hurtom]
Encoded date                : UTC 2018-12-25 09:14:07
Writing application         : v24.0.0 ('Beyond The Pale') 64-bit
Writing library             : libebml v1.3.6 + v1.4.9
Cover                       : Yes
Attachments                 : cover.jpg

Video
ID                          : 1
Format                      : AVC
Format/Info                 : Advanced Video Codec
Format profile              : [email protected]
Format settings             : CABAC / 4 Ref Frames
Format settings, CABAC      : Yes
Format settings, ReFrames   : 4 frames
Codec ID                    : V_MPEG4/ISO/AVC
Duration                    : 1 h 45 min
Bit rate mode               : Variable
Bit rate                    : 24.9 Mb/s
Maximum bit rate            : 28.0 Mb/s
Width                       : 1 920 pixels
Height                      : 1 080 pixels
Display aspect ratio        : 16:9
Frame rate mode             : Constant
Frame rate                  : 23.976 (24000/1001) FPS
Color space                 : YUV
Chroma subsampling          : 4:2:0
Bit depth                   : 8 bits
Scan type                   : Progressive
Bits/(Pixel*Frame)          : 0.501
Stream size                 : 18.3 GiB (85%)
Title                       : The House with a Clock in Its Walls (2018) Remux.1080p.NNMClub
Language                    : English
Default                     : No
Forced                      : No

Audio #1
ID                          : 2
Format                      : AC-3
Format/Info                 : Audio Coding 3
Codec ID                    : A_AC3
Duration                    : 1 h 45 min
Bit rate mode               : Constant
Bit rate                    : 192 kb/s
Channel(s)                  : 2 channels
Channel positions           : Front: L R
Sampling rate               : 48.0 kHz
Frame rate                  : 31.250 FPS (1536 SPF)
Bit depth                   : 16 bits
Compression mode            : Lossy
Stream size                 : 144 MiB (1%)
Language                    : Ukrainian
Service kind                : Complete Main
Default                     : Yes
Forced                      : Yes

Audio #2
ID                          : 3
Format                      : TrueHD
Format profile              : TrueHD+Atmos / TrueHD
Codec ID                    : A_TRUEHD
Duration                    : 1 h 45 min
Bit rate mode               : Variable
Bit rate                    : 4 274 kb/s
Maximum bit rate            : 7 884 kb/s
Channel(s)                  : Object Based / 8 channels
Channel positions           : Object Based / Front: L C R, Side: L R, Back: L R, LFE
Sampling rate               :  / 48.0 kHz
Frame rate                  : 1 200.000 FPS (40 SPF)
Compression mode            : Lossless
Stream size                 : 3.14 GiB (15%)
Language                    : English
Default                     : No
Forced                      : No

Text
ID                          : 4
Format                      : UTF-8
Codec ID                    : S_TEXT/UTF8
Codec ID/Info               : UTF-8 Plain Text
Duration                    : 1 h 39 min
Bit rate                    : 65 b/s
Count of elements           : 1629
Stream size                 : 47.6 KiB (0%)
Title                       : SDH
Language                    : English
Default                     : No
Forced                      : No

Menu
00:00:00.000                : en:Chapter 01
00:05:32.707                : en:Chapter 02
00:11:59.635                : en:Chapter 03
00:16:41.792                : en:Chapter 04
00:22:41.985                : en:Chapter 05
00:27:43.536                : en:Chapter 06
00:31:11.494                : en:Chapter 07
00:34:58.346                : en:Chapter 08
00:39:05.843                : en:Chapter 09
00:44:35.422                : en:Chapter 10
00:49:56.034                : en:Chapter 11
00:53:44.220                : en:Chapter 12
00:58:07.734                : en:Chapter 13
01:05:02.064                : en:Chapter 14
01:11:44.842                : en:Chapter 15
01:15:59.638                : en:Chapter 16
01:21:33.805                : en:Chapter 17
01:26:39.986                : en:Chapter 18
01:33:34.650                : en:Chapter 19
01:39:03.938                : en:Chapter 20





Джерело: & &
Особиста оцінка: 8 - мені сподобалося
Будинок з годинником у стінах / The House with a Clock in Its Walls (2018) Remux 1080p Ukr/Eng | Sub Eng Будинок з годинником у стінах / The House with a Clock in Its Walls (2018) Remux 1080p Ukr/Eng | Sub Eng


Золотий реліз (завантажене не впливає на рейтинг)
 Трекер:    Зареєстрований   

Завантажити / скачати фільм українською



відео для новачків



 Зареєстрований:   2018-12-25 11:51
 Розмір:   21.6 GB 
 Оцінка фільму:   8.3/10 (Голосів: 18)
   
bot 
робот


З нами з: 30.09.07
Востаннє: 26.05.05
Повідомлень: 27273

2018-12-25 11:51  
Тему перенесено з Анонси релізів до форуму Фільми в HD


staf777

service 
Новенький


З нами з: 02.07.18
Востаннє: 28.02.21
Повідомлень: 12

2018-12-26 08:48  
І це дитячий фільм ... Куди котиться цей світ.
Ваш часовий пояс: GMT + 2 Години

Нова тема   Відповісти