Розлом Сан-Андреас / San Andreas (2015) UHD Remux 2160p 4K HDR H.265 Ukr/Eng

Нові коментарі

Нова тема   Відповісти
Останній раз роздавалося DCeres (2019-04-20)
Автор Повідомлення
Documentalist 
Попереджень: 1
Попереджень: 1 


З нами з: 04.06.17
Востаннє: 16.04.19
Повідомлень: 59

2018-12-25 04:13  
Розлом Сан-Андреас / San Andreas (2015) UHD Remux 2160p 4K HDR H.265 Ukr/Eng


Розлом Сан-Андреас / San Andreas (2015) UHD Remux 2160p 4K HDR H.265 Ukr/Eng


Жанр: екшн, драма, трилер
Країна: США, Австралія, Канада



Кінокомпанія: Warner Bros.
Режисер: Бред Пейтон / Brad Peyton
Актори: Двейн Джонсон / Dwayne Johnson, Александра Даддаріо / Alexandra Daddario, Карла Ґуджіно / Carla Gugino, Колтон Гейнс / Colton Haynes, Пол Джаматті / Paul Giamatti, Кайлі Міноуґ / Kylie Minogue, Ванесса Росс / Vanessa Ross, Вілл Юн Лі / Will Yun Lee

Сюжет:
Рей - пілот рятувального гелікоптера, який усе своє життя допомагав іншим людям. За весь час роботи він надивився на безліч моторошних речей і не раз опинявся в дуже складних ситуаціях. Незважаючи на всі перепони він поспішав на допомогу, навіть не припускаючи, що найстрашніше чекає його попереду. На Каліфорнію обрушується потужний землетрус, в результаті якого гинуть сотні людей і утворюється величезна тріщина в землі. У загальному хаосі Рею належить відшукати свою дочку, але зробити це буде дуже непросто. У надії, що його дитина все ще жива, він відправляється в смертельно небезпечну подорож через весь штат...


Тривалість: 01:54:28
Якість: 4K UltraHD Remux 2160p
Відео:
розмір кадру: 3840x2160
бітрейт: 54.0 Мб/с
бітова глибина: 10 біт
кольоровий простір: BT.2020 (HDR)

Аудіо:
мова: українська
переклад: професійний дубльований
кодек: 5.1
бітрейт: 384 кб/с

Аудіо: # 2
мова: англійська
переклад: оригінал
кодек: -HD MA 7.1
бітрейт: 5240 Мб/с

Субтитри:
мова: українська
тип: програмні (форсованi)
формат: *.srt
Info
Format :
Format version : Version 4
File size : 47.7 GiB
Duration : 1 h 54 min
Overall bit rate mode : Variable
Overall bit rate : 59.7 Mb/s
Movie name : Розлом Сан-Андреас
Encoded date : UTC 2018-12-23 02:36:19
Writing application : v7.8.0 ('River Man') 32bit built on Apr 3 2015 12:11:22
Writing library : libebml v1.3.1 + v1.4.2
Cover : Yes
Attachments : cover.jpg

Video
ID : 1
Format : HEVC
Format/Info : High Efficiency Video Coding
Commercial name : HDR10
Format profile : Main [email protected]@High
Codec ID : V_MPEGH/ISO/HEVC
Duration : 1 h 54 min
Bit rate : 54.0 Mb/s
Width : 3 840 pixels
Height : 2 160 pixels
Display aspect ratio : 16:9
Frame rate mode : Constant
Frame rate : 23.976 (24000/1001) FPS
Color space : YUV
Chroma subsampling : 4:2:0 (Type 2)
Bit depth : 10 bits
Bits/(Pixel*Frame) : 0.272
Stream size : 43.2 GiB (90%)
Title : Розлом Сан-Андреас
Writing library : ATEME Titan KFE 3.7.3 (4.7.3.1001)
Language : Ukrainian
Default : Yes
Forced : No
Color range : Limited
Color primaries : BT.2020
Transfer characteristics : PQ
Matrix coefficients : BT.2020 non-constant
Mastering display color pri : Display P3
Mastering display luminance : min: 0.0050 cd/m2, max: 4000 cd/m2

Audio #1
ID : 2
Format : AC-3
Format/Info : Audio Coding 3
Commercial name : Dolby Digital
Codec ID : A_AC3
Duration : 1 h 54 min
Bit rate mode : Constant
Bit rate : 384 kb/s
Channel(s) : 6 channels
Channel layout : L R C LFE Ls Rs
Sampling rate : 48.0 kHz
Frame rate : 31.250 FPS (1536 SPF)
Bit depth : 16 bits
Compression mode : Lossy
Stream size : 314 MiB (1%)
Title : Дубльований
Language : Ukrainian
Service kind : Complete Main
Default : No
Forced : No

Audio #2
ID : 3
Format : MLP FBA 16-ch
Format/Info : Meridian Lossless Packing FBA with 16-channel presentation
Commercial name : Dolby TrueHD with Dolby Atmos
Codec ID : A_TRUEHD
Duration : 1 h 54 min
Bit rate mode : Variable
Bit rate : 5 240 kb/s
Maximum bit rate : 8 760 kb/s
Channel(s) : 8 channels
Channel layout : L R C LFE Ls Rs Lb Rb
Sampling rate : 48.0 kHz
Frame rate : 1 200.000 FPS (40 SPF)
Compression mode : Lossless
Stream size : 4.19 GiB (9%)
Title : Орiгiнал
Language : English
Default : No
Forced : No
Number of dynamic objects : 11
Bed channel count : 1 channel
Bed channel configuration : LFE

Text
ID : 4
Format : UTF-8
Codec ID : S_TEXT/UTF8
Codec ID/Info : UTF-8 Plain Text
Duration : 1 h 45 min
Bit rate : 1 b/s
Count of elements : 29
Stream size : 1.19 KiB (0%)
Title : Форсованi
Language : Ukrainian
Default : Yes
Forced : Yes

Menu
00:00:00.000 : en:Chapter 1
00:09:29.944 : en:Chapter 2
00:18:47.209 : en:Chapter 3
00:30:10.099 : en:Chapter 4
00:40:08.823 : en:Chapter 5
00:50:18.098 : en:Chapter 6
00:59:44.497 : en:Chapter 7
01:11:27.366 : en:Chapter 8
01:19:43.612 : en:Chapter 9
01:30:40.810 : en:Chapter 10
01:39:56.490 : en:Chapter 11
01:47:10.924 : en:Chapter 12
Скріншоти






Золотий реліз (завантажене не впливає на рейтинг)
 Трекер:    Зареєстрований   

Завантажити / скачати фільм українською



відео для новачків



 Зареєстрований:   2018-12-25 04:48
 Розмір:   47.75 GB 
 Оцінка фільму:   6.3/10 (Голосів: 3)
   
11FrYkT 
Модератор відео


З нами з: 20.02.11
Востаннє: 21.04.19
Повідомлень: 5798

2018-12-25 11:27  
Documentalist , додавайте будь ласка оригінальні субтитри
sanya.everlast 
Новенький


З нами з: 03.10.15
Востаннє: 19.04.19
Повідомлень: 23

2018-12-25 14:18  
ЛЮДИ Є ХТОСЬ НА РОЗДАЧІ
Documentalist 
Попереджень: 1
Попереджень: 1 


З нами з: 04.06.17
Востаннє: 16.04.19
Повідомлень: 59

2018-12-25 19:03  
Вибачаюсь , але сьогоднi щось з iнетом.
Намагаюсь вiддавати на максiмумi.

Пане 11FrYkT ,нема мiсця для ремукску в мене.З часом додам.

aps 
Новенький


З нами з: 06.03.17
Востаннє: 18.04.19
Повідомлень: 3

2019-02-16 01:03  
Дуже поганий фільм. Не витрачайте часу!
Ваш часовий пояс: GMT + 2 Години

Нова тема   Відповісти